<svg xmlns="http://www.w3.org/2000/svg">
<defs>
<font id="GuthenBlootsBasic" horiz-adv-x="0" >
  <font-face 
    font-family="Guthen Bloots Basic"
    font-weight="400"
    font-stretch="normal"
    units-per-em="2048"
    panose-1="2 0 6 0 0 0 0 0 0 0"
    ascent="1638"
    descent="-410"
    x-height="754"
    cap-height="1403"
    bbox="-1517 -1067 3091 2163"
    underline-thickness="150"
    underline-position="-367"
    unicode-range="U+001D-FB02"
  />
<missing-glyph horiz-adv-x="1024" 
d="M582 580q18 2 18 14q0 21 -49 82q-10 11 -10 18q0 8 5 8h1q-95 0 -139 21q-5 0 -5 -2q15 -68 15 -74q18 27 43 27q14 0 28 -8q59 -40 78 -78q3 -8 15 -8zM524 582q4 0 4 6q-9 12 -30 24q-31 17 -39 17q-4 0 -4 -6q0 -5 2 -5q65 -36 67 -36zM594 1030q4 4 4 8q0 34 -59 54
q-49 16 -78 16q-12 0 -12 -4t10 -10q84 -53 135 -64zM526 1194l2 2q0 15 -26 27q-33 16 -41 16q-4 0 -4 -4q0 -5 2 -6q62 -35 67 -35zM516 258q4 0 4 8q0 41 -96 41q-10 0 -10 -2q0 -3 57 -31q38 -16 45 -16zM563 535q-41 0 -86 20q-63 34 -63 74q-6 -8 -19 -8q-14 0 -28 86
q-10 39 -93 47q-45 4 -45 32q0 15 19 15q1 0 25 -2l16 -2q29 -6 41 -6q6 0 6 24q0 19 -8 72q-11 50 -11 76q0 12 3 33q3 20 36 20q9 0 9 -7q0 -3 -2 -13q-3 -8 -3 -31q0 -189 31 -193q103 -24 162 -24q34 0 76 6q12 0 12 -13q0 -3 -6 -12q-25 -27 -72 -27q23 -7 45 -35
q21 -27 21 -61q0 -70 -66 -71zM569 784q-34 0 -108 19q-12 1 -12 14q0 28 16 29h10q71 -17 90 -17q6 0 6 5q0 9 -55 51q-59 40 -70 43q-12 4 -12 16q0 25 17 25q213 -54 309 -54q34 0 55 9q16 4 21 4q12 0 12 -13q0 -43 -90 -43q-56 0 -150 17q-31 6 -41 6q50 -50 51 -74
q0 -15 -22 -30q-11 -7 -27 -7zM731 956q-58 0 -178 21q-76 14 -137 20q-21 1 -21 21q0 26 22 26l83 -8l-11 4q-79 42 -79 76q0 31 41 31q53 0 81 -6q89 -23 89 -74q0 -16 -7 -37q0 -12 45 -22q39 -9 66 -13q23 -2 23 -16q0 -21 -17 -23zM563 1143q-39 0 -86 24
q-63 31 -63 68q0 27 30 47q9 4 19 4q12 0 26 -8q59 -40 76 -78q6 -14 13 -14q4 0 6 2q16 3 16 18q0 20 -25 51q-15 22 -25 31q-9 10 -9 17q0 12 16 12q24 0 53 -41q19 -25 19 -59q0 -74 -66 -74zM565 119q-21 0 -28 43q-7 34 -19 41l-207 106q-24 13 -24 37q0 33 15 33

<glyph glyph-name="th" unicode="th" horiz-adv-x="1245" 
d="M547 -98q-132 0 -135 110q0 34 123 963q0 22 -13 22q-7 0 -139 -24q-17 -3 -27 -27l-41 -162q-69 -282 -69 -489q0 -158 47 -313q4 -18 4 -27q0 -51 -70 -51q-29 0 -57 22q-89 71 -104 164q-9 45 -9 137q0 346 76 635q4 24 4 29q0 18 -12 18q-22 0 -43 -8
q-201 -55 -256 -55q-98 0 -111 117q0 39 43 61q48 20 125 31q73 8 170 39q87 27 133 53q45 23 72 278q9 91 84 97q16 0 37 -6q74 -20 74 -91q0 -57 -11 -112q-18 -93 -18 -101q0 -24 27 -24q109 15 118 24q10 12 127 623q13 70 76 70l19 -2q71 -3 71 -78q0 -94 -82 -522
l-10 -50q0 -14 12 -14l6 2q444 66 533 66q30 0 92 -4q122 -17 125 -136q0 -50 -43 -53q-11 0 -33 4q-63 21 -143 21q-51 0 -574 -97q-9 -3 -16 -10q-10 -10 -16 -69q-56 -357 -56 -390q0 -20 9 -20q11 0 32 43q92 161 203 281q47 48 100 51q32 0 58 -15q64 -33 67 -100
l-2 -45q-49 -423 -49 -559q0 -89 64 -156q30 -30 35 -57q0 -19 -21 -43q-36 -42 -88 -45q-29 0 -61 16q-99 53 -105 162q-8 96 -8 240q0 49 4 143q6 88 6 106q-3 33 -10 33q-39 0 -146 -297q-86 -236 -92 -297q-12 -109 -106 -112z" />
    <glyph glyph-name="tt" unicode="tt" horiz-adv-x="889" 
d="M281 -346q-20 0 -33 8q-89 40 -117 115q-35 98 -47 297q-4 78 -4 121q0 237 61 673l2 17q0 20 -14 20q-165 -51 -223 -51q-121 0 -121 119q0 49 55 67q50 19 142 37q169 35 208 72q23 18 29 47q60 249 158 578q24 79 82 79q21 0 41 -8q82 -30 82 -90q0 -23 -13 -49
q-44 -117 -67 -211q-70 -274 -70 -295q0 -16 19 -16q167 32 194 47q19 12 31 65q59 269 76 285q36 41 94 41q75 0 78 -86q0 -45 -31 -195q-4 -28 -4 -36q0 -31 35 -31q219 34 325 37q55 0 117 -6q101 -10 119 -140q0 -50 -45 -53q-9 0 -33 4q-42 10 -147 10l-127 -4
q-282 -6 -310 -125q-129 -581 -129 -774q0 -138 43 -282q4 -18 4 -27q0 -26 -22 -39q-24 -14 -45 -14q-32 0 -60 24q-101 87 -110 269l-2 90q0 153 22 301q15 97 70 403q6 28 6 41q0 23 -12 23q-215 -22 -221 -78q-97 -500 -97 -801q0 -170 19 -268q13 -72 57 -133
q10 -18 10 -25q0 -9 -10 -26q-20 -24 -65 -27z" />
    <glyph glyph-name="ck" unicode="ck" horiz-adv-x="1157" 
d="M592 -485q-90 3 -96 90q-4 52 -4 106q0 143 22 258q8 31 8 49q0 7 -2 7q-7 0 -28 -21q-100 -106 -220 -106q-58 0 -98 12q-163 50 -166 207v33q0 298 146 542q58 99 143 105l39 -2q125 -10 125 -154q0 -30 -10 -57q-22 -52 -132 -70q-30 -6 -53 -16q-31 -19 -57 -115
q-31 -97 -31 -205q0 -135 98 -135q151 0 271 340q95 272 188 766q15 82 84 82q19 0 25 -2q71 -23 71 -88q0 -13 -4 -33q-100 -355 -100 -442q0 -31 10 -31q16 0 92 94q41 51 127 145q41 41 86 41q50 0 88 -38q21 -21 21 -46t-43 -47q-18 -10 -27 -20q-117 -126 -213 -264
q-200 -293 -200 -332q0 -18 41 -18q174 12 233 12q69 0 180 -35q64 -21 64 -64q0 -40 -23 -40q-40 0 -61 6q-69 16 -154 16q-327 0 -336 -86q-21 -227 -28 -336q-3 -48 -15 -76q-12 -32 -61 -32z" />
    <glyph glyph-name="xi" unicode="xi" horiz-adv-x="1073" 
d="M1014 1008h-21q-63 15 -63 102q0 91 55 262q11 36 49 39q30 0 49 -8q84 -35 84 -92q0 -65 -88 -248q-24 -55 -65 -55zM100 -201h-8q-6 0 -22 4q-68 26 -68 74q0 24 14 49l56 94q90 160 90 263q0 57 -17 157q-36 213 -36 434q0 189 14 224q12 26 61 26q105 0 111 -108
q15 -259 31 -398q9 -108 39 -108q27 3 92 86q151 194 342 307q38 25 92 25q52 0 106 -39q54 -42 54 -103q0 -38 -43 -182q-88 -282 -88 -418q0 -88 38 -120q37 -34 37 -72q0 -40 -45 -57q-11 -7 -28 -7q-29 0 -56 13q-135 58 -135 215q0 94 51 288q52 192 52 269
q0 39 -17 39q-15 0 -39 -21q-211 -184 -362 -407q-31 -46 -31 -97q0 -158 145 -194q52 -12 52 -55q0 -49 -54 -52h-32q-121 0 -195 86q-27 31 -49 31q-34 -3 -62 -108q-33 -135 -90 -138z" />
    <glyph glyph-name="R_p" unicode="R_p" horiz-adv-x="1490" 
d="M315 799q58 12 162 86q100 73 184 157q67 70 69 111q0 31 -124 31q-111 0 -166 -49q-59 -53 -86 -164l-13 -47q-22 -60 -26 -125zM1038 298q3 3 10 6q64 22 174 229q58 107 58 160q0 33 -21 35q-52 0 -182 -244q-74 -140 -74 -157q0 -3 2 -17q0 -9 33 -12zM660 -175
q-13 -5 -26 -5q-17 0 -38 12q-22 11 -44 39q-39 46 -63 82q-20 27 -32 54q-12 25 -20 50l-14 39q-85 196 -114 404q-12 67 -21 67q-21 0 -53 -221q-20 -141 -25 -209q-16 -102 -90 -102l-45 2q-40 0 -41 229q0 135 41 357q6 54 29 145q52 237 53 276q0 22 -20 50
q-15 18 -15 49q0 12 6 45q5 34 107 65q0 1 2 1q1 0 2 1h2q174 66 334 66q166 -11 266 -94q64 -52 64 -140q0 -63 -48 -122q-49 -60 -124 -117q-2 -1 -6 -5q-82 -62 -121 -85q-96 -53 -99 -142q0 -27 6 -57q29 -161 70 -303l31 -92q25 -76 66 -173q60 451 174 893
q18 69 73 69q17 0 33 -6q66 -19 66 -78q0 -29 -21 -94q-22 -63 -22 -129q0 -14 8 -16q21 0 123 141q75 110 163 113q48 0 95 -25q74 -38 75 -121q0 -30 -6 -65q-36 -236 -198 -406q-64 -67 -148 -67q-39 0 -78 14q-18 8 -32 8l-21 -2q-20 -4 -96 -309q-35 -149 -35 -248
l2 -72q0 -27 -6 -53q-8 -26 -66 -26q-119 0 -122 116l2 21q5 65 17 176z" />
    <glyph glyph-name="ff" unicode="ff" horiz-adv-x="1036" 
d="M125 -905q18 4 63 270q37 212 37 334q-9 122 -35 143q-8 -8 -12 -14q-7 -11 -16 -80q-53 -356 -53 -602q0 -51 16 -51zM139 -1067l-51 2q-136 21 -151 152q-11 86 -11 143q0 208 64 541q6 27 6 53v18q-3 6 -6 25q-3 16 -56 39q-52 21 -55 55q0 14 2 29q3 20 53 45
q128 60 152 211q23 147 72 336q28 115 53 137q15 12 41 12q100 0 100 -80q0 -66 -71 -329q-13 -48 -13 -82q0 -50 31 -50q25 0 137 50q110 45 119 147q24 263 111 518q27 90 98 90q18 0 24 -2q74 -18 74 -104q0 -23 -2 -33q-28 -125 -57.5 -257.5t-39.5 -177t-11 -44.5
q-7 -26 -7 -37q0 -21 15 -21q32 10 49 17q84 35 186 35q139 0 176 -84q0 -74 -77 -74q-29 0 -58 23q-6 6 -24 6q-44 -3 -185 -64q-129 -53 -153 -160q-19 -87 -19 -147q0 -32 13 -68q71 -201 71 -327q0 -47 -10 -105q-27 -166 -145 -172h-23q-122 6 -131 146q0 230 27 426
q4 44 4 61q0 57 -19 123q-18 65 -131 80q-47 0 -47 -27q0 -16 6 -28q86 -171 86 -480q0 -99 -8 -211q-9 -133 -72 -250q-49 -97 -137 -106z" />
    <glyph glyph-name=".notdef" horiz-adv-x="1024" 
d="M582 580q18 2 18 14q0 21 -49 82q-10 11 -10 18q0 8 5 8h1q-95 0 -139 21q-5 0 -5 -2q15 -68 15 -74q18 27 43 27q14 0 28 -8q59 -40 78 -78q3 -8 15 -8zM524 582q4 0 4 6q-9 12 -30 24q-31 17 -39 17q-4 0 -4 -6q0 -5 2 -5q65 -36 67 -36zM594 1030q4 4 4 8q0 34 -59 54
q-49 16 -78 16q-12 0 -12 -4t10 -10q84 -53 135 -64zM526 1194l2 2q0 15 -26 27q-33 16 -41 16q-4 0 -4 -4q0 -5 2 -6q62 -35 67 -35zM516 258q4 0 4 8q0 41 -96 41q-10 0 -10 -2q0 -3 57 -31q38 -16 45 -16zM563 535q-41 0 -86 20q-63 34 -63 74q-6 -8 -19 -8q-14 0 -28 86
q-10 39 -93 47q-45 4 -45 32q0 15 19 15q1 0 25 -2l16 -2q29 -6 41 -6q6 0 6 24q0 19 -8 72q-11 50 -11 76q0 12 3 33q3 20 36 20q9 0 9 -7q0 -3 -2 -13q-3 -8 -3 -31q0 -189 31 -193q103 -24 162 -24q34 0 76 6q12 0 12 -13q0 -3 -6 -12q-25 -27 -72 -27q23 -7 45 -35
q21 -27 21 -61q0 -70 -66 -71zM569 784q-34 0 -108 19q-12 1 -12 14q0 28 16 29h10q71 -17 90 -17q6 0 6 5q0 9 -55 51q-59 40 -70 43q-12 4 -12 16q0 25 17 25q213 -54 309 -54q34 0 55 9q16 4 21 4q12 0 12 -13q0 -43 -90 -43q-56 0 -150 17q-31 6 -41 6q50 -50 51 -74
q0 -15 -22 -30q-11 -7 -27 -7zM731 956q-58 0 -178 21q-76 14 -137 20q-21 1 -21 21q0 26 22 26l83 -8l-11 4q-79 42 -79 76q0 31 41 31q53 0 81 -6q89 -23 89 -74q0 -16 -7 -37q0 -12 45 -22q39 -9 66 -13q23 -2 23 -16q0 -21 -17 -23zM563 1143q-39 0 -86 24
q-63 31 -63 68q0 27 30 47q9 4 19 4q12 0 26 -8q59 -40 76 -78q6 -14 13 -14q4 0 6 2q16 3 16 18q0 20 -25 51q-15 22 -25 31q-9 10 -9 17q0 12 16 12q24 0 53 -41q19 -25 19 -59q0 -74 -66 -74zM565 119q-21 0 -28 43q-7 34 -19 41l-207 106q-24 13 -24 37q0 33 15 33
q5 0 15 -2q150 -39 236 -39q77 0 139 24q8 0 8 -10q0 -14 -8 -22q-35 -32 -94 -35q-41 -3 -41 -12q0 -23 7 -40q6 -18 40 -22q45 -1 45 -16q0 -31 -33 -31q-6 0 -10 2q-3 1 -7 3q-3 1 -13 1q-6 0 -6 -4q0 -3 6 -18q6 -16 6 -19q0 -5 -9 -13q-8 -7 -18 -7zM635 356
q-9 0 -20 15q-13 16 -46 45q-74 67 -106 67q-14 0 -14 -11q0 -16 14 -64l2 -11q0 -15 -16 -22v-2q-9 0 -13 10q-18 49 -18 84q0 57 45 59q26 0 82 -41l6 -4q23 -18 27 -18l-3 31q0 21 17 41q9 10 24 10q27 0 27 -18q0 -22 -17 -22q-18 -1 -18 -9q0 -28 33 -84q10 -16 10 -31
q0 -25 -16 -25zM874 49v1335h-724v-1335h724zM924 0h-824v1434h824v-1434z" />
    <glyph glyph-name=".notdef" horiz-adv-x="1024" 
d="M582 580q18 2 18 14q0 21 -49 82q-10 11 -10 18q0 8 5 8h1q-95 0 -139 21q-5 0 -5 -2q15 -68 15 -74q18 27 43 27q14 0 28 -8q59 -40 78 -78q3 -8 15 -8zM524 582q4 0 4 6q-9 12 -30 24q-31 17 -39 17q-4 0 -4 -6q0 -5 2 -5q65 -36 67 -36zM594 1030q4 4 4 8q0 34 -59 54
q-49 16 -78 16q-12 0 -12 -4t10 -10q84 -53 135 -64zM526 1194l2 2q0 15 -26 27q-33 16 -41 16q-4 0 -4 -4q0 -5 2 -6q62 -35 67 -35zM516 258q4 0 4 8q0 41 -96 41q-10 0 -10 -2q0 -3 57 -31q38 -16 45 -16zM563 535q-41 0 -86 20q-63 34 -63 74q-6 -8 -19 -8q-14 0 -28 86
q-10 39 -93 47q-45 4 -45 32q0 15 19 15q1 0 25 -2l16 -2q29 -6 41 -6q6 0 6 24q0 19 -8 72q-11 50 -11 76q0 12 3 33q3 20 36 20q9 0 9 -7q0 -3 -2 -13q-3 -8 -3 -31q0 -189 31 -193q103 -24 162 -24q34 0 76 6q12 0 12 -13q0 -3 -6 -12q-25 -27 -72 -27q23 -7 45 -35
q21 -27 21 -61q0 -70 -66 -71zM569 784q-34 0 -108 19q-12 1 -12 14q0 28 16 29h10q71 -17 90 -17q6 0 6 5q0 9 -55 51q-59 40 -70 43q-12 4 -12 16q0 25 17 25q213 -54 309 -54q34 0 55 9q16 4 21 4q12 0 12 -13q0 -43 -90 -43q-56 0 -150 17q-31 6 -41 6q50 -50 51 -74
q0 -15 -22 -30q-11 -7 -27 -7zM731 956q-58 0 -178 21q-76 14 -137 20q-21 1 -21 21q0 26 22 26l83 -8l-11 4q-79 42 -79 76q0 31 41 31q53 0 81 -6q89 -23 89 -74q0 -16 -7 -37q0 -12 45 -22q39 -9 66 -13q23 -2 23 -16q0 -21 -17 -23zM563 1143q-39 0 -86 24
q-63 31 -63 68q0 27 30 47q9 4 19 4q12 0 26 -8q59 -40 76 -78q6 -14 13 -14q4 0 6 2q16 3 16 18q0 20 -25 51q-15 22 -25 31q-9 10 -9 17q0 12 16 12q24 0 53 -41q19 -25 19 -59q0 -74 -66 -74zM565 119q-21 0 -28 43q-7 34 -19 41l-207 106q-24 13 -24 37q0 33 15 33
q5 0 15 -2q150 -39 236 -39q77 0 139 24q8 0 8 -10q0 -14 -8 -22q-35 -32 -94 -35q-41 -3 -41 -12q0 -23 7 -40q6 -18 40 -22q45 -1 45 -16q0 -31 -33 -31q-6 0 -10 2q-3 1 -7 3q-3 1 -13 1q-6 0 -6 -4q0 -3 6 -18q6 -16 6 -19q0 -5 -9 -13q-8 -7 -18 -7zM635 356
q-9 0 -20 15q-13 16 -46 45q-74 67 -106 67q-14 0 -14 -11q0 -16 14 -64l2 -11q0 -15 -16 -22v-2q-9 0 -13 10q-18 49 -18 84q0 57 45 59q26 0 82 -41l6 -4q23 -18 27 -18l-3 31q0 21 17 41q9 10 24 10q27 0 27 -18q0 -22 -17 -22q-18 -1 -18 -9q0 -28 33 -84q10 -16 10 -31
q0 -25 -16 -25zM874 49v1335h-724v-1335h724zM924 0h-824v1434h824v-1434z" />
    <glyph glyph-name=".null" 
 />
    <glyph glyph-name="nonmarkingreturn" horiz-adv-x="682" 
 />
    <glyph glyph-name="space" unicode=" " horiz-adv-x="469" 
 />
    <glyph glyph-name="space" unicode="&#xa0;" horiz-adv-x="469" 
 />
    <glyph glyph-name="exclam" unicode="!" horiz-adv-x="657" 
d="M260 225q-16 0 -41 8q-58 19 -61 267q0 283 168 714q15 40 22 66q34 125 113 125q23 0 53 -10q66 -29 66 -84q0 -16 -11 -49q-217 -515 -229 -930q-3 -61 -35 -86q-19 -17 -45 -21zM266 -365h-6q-12 0 -29 9q-73 42 -73 198q0 185 104 185q116 -3 119 -70q0 -11 -4 -47
q-32 -271 -111 -275z" />
    <glyph glyph-name="quotedbl" unicode="&#x22;" horiz-adv-x="856" 
d="M360 774l-30 2q-152 53 -152 207q0 76 39 168q40 99 100 172q29 30 60 33q40 0 78 -23q33 -21 37 -49q0 -43 -58 -149q-72 -123 -72 -207q0 -31 29 -123q0 -28 -31 -31zM633 866q-13 0 -25 4q-126 55 -135 158q0 162 168 256q21 9 43 12q47 0 80 -39q11 -13 14 -34
q0 -41 -55 -117q-57 -77 -57 -141l10 -62q0 -31 -43 -37z" />
    <glyph glyph-name="numbersign" unicode="#" horiz-adv-x="964" 
d="M455 473q27 0 48 21q14 14 14 40q0 11 -6 43q-20 93 -48 93q-6 0 -16 -8q-53 -42 -53 -77q5 -42 19 -72q16 -36 42 -40zM607 53q-24 0 -72 72q-33 45 -45 45q-23 0 -40 -61q-8 -24 -34 -24q-2 0 -22 5q-61 29 -61 85q0 42 24 78q24 35 24 69q0 36 -42 90q-20 32 -22 37
q-12 16 -21 16q-15 0 -56 -61q-186 -267 -188 -274q-25 -45 -48 -45q-14 0 -35 13q-53 34 -53 70q0 24 19 50q152 235 239 345q32 46 32 75q0 45 -61 103q-27 27 -27 43q0 8 13 21q14 14 29 14q21 0 59 -27q24 -17 34 -32q21 -24 32 -24q14 0 38 24q50 51 50 85q0 23 -16 51
q-28 49 -66 146q-16 42 -16 66q0 32 37 32q16 0 37 -13q72 -56 90 -133q12 -40 30 -40q17 0 111 122q24 29 51 29q29 0 64 -23q34 -28 34 -59q0 -34 -151 -204q-27 -27 -27 -56q0 -25 27 -48q11 -11 21 -11q15 0 50 59q139 218 192 218q21 0 56 -22q29 -21 29 -50
q0 -20 -19 -48l-196 -271q-27 -34 -27 -72q0 -28 16 -56q61 -105 85 -162q32 -76 32 -162q0 -21 -3 -34q-3 -24 -40 -24q-19 0 -111 191l-64 114q-45 -45 -45 -87q0 -80 74 -144q45 -45 45 -72q0 -29 -66 -29z" />
    <glyph glyph-name="dollar" unicode="$" horiz-adv-x="764" 
d="M375 125q24 15 43 53q33 64 33 125q0 39 -21 39q-27 0 -47 -51q-23 -58 -23 -117q0 -49 15 -49zM217 512q27 3 76 289q49 282 49 342q-91 -69 -147 -228q-68 -181 -68 -288q0 -33 23 -74q21 -41 67 -41zM336 -518q-15 0 -35 10q-87 49 -90 148q-3 96 -64 96
q-16 0 -51 -10q-18 -9 -45 -9q-55 0 -92 29q-16 13 -16 25q0 9 8 20q7 10 74 27q128 27 161 147q37 130 37 361q0 44 -49 71q-178 94 -213 246q-10 55 -10 100q0 104 55 238q52 134 168 268q112 130 229 197q28 14 37 65q16 80 76 80q46 0 78 -41q18 -27 18 -59
q-6 -68 -6 -92q0 -53 21 -99q10 -23 10 -34q0 -10 -6 -13q-87 -61 -129 -237q-43 -162 -92 -494v-24q0 -33 53 -56q184 -64 184 -204q0 -71 -51 -154q-56 -94 -152 -166q-102 -81 -102 -178q0 -86 43 -176q10 -22 10 -37t-12 -27q-21 -18 -47 -18z" />
    <glyph glyph-name="percent" unicode="%" horiz-adv-x="958" 
d="M698 37q9 0 27 31q35 58 47 135q0 24 -8 24q-33 -68 -57 -157q-9 -24 -9 -33zM201 901q3 0 18 12q67 64 90 125q23 57 23 84q-6 25 -10 25q-7 -3 -15 -17q-45 -74 -86 -157q-24 -53 -24 -68q0 -4 4 -4zM150 -610q-27 0 -50 8q-96 34 -96 168q0 37 6 121q3 82 92 323
q186 502 635 1303l56 104q32 82 77 88q38 0 78 -28q29 -23 37 -60q0 -31 -24 -74q-307 -522 -560 -1046q-162 -331 -243 -680q-6 -27 -6 -55q3 -37 22 -54q31 -23 43 -59q0 -11 -10 -29q-18 -27 -57 -30zM682 -215q-67 0 -125 55q-40 37 -43 82l2 29q41 379 166 397l43 2
l59 -2q136 -9 136 -174q0 -206 -148 -354q-37 -35 -90 -35zM170 672q-34 0 -68 18q-96 47 -108 121q0 38 10 70q108 260 170 387q31 63 88 63q47 0 96 -33q102 -62 129 -161q0 -161 -159 -357q-91 -108 -158 -108z" />
    <glyph glyph-name="ampersand" unicode="&#x26;" horiz-adv-x="963" 
d="M201 502l28 2q132 26 258 94q23 14 33 16q8 5 20.5 12.5t16.5 10.5q15 9 33 68q69 251 125 428l6 26q0 19 -14 19q-46 0 -273 -201q-212 -182 -295 -373q-8 -28 -12 -53q0 -49 74 -49zM346 -27q13 0 39 13q4 0 16 4q39 153 39 172q0 14 -6 14q-20 0 -59 -47
q-66 -84 -66 -131q0 -25 37 -25zM428 -784q-27 0 -70 14q-47 25 -47 162q0 194 41 364l6 35q0 14 -28 14q-171 10 -248 162q-19 43 -19 76q0 81 123 190q33 33 33 58q0 24 -59 45q-252 98 -252 282q0 102 63 216q209 338 867 684q4 8 4 12q34 100 100 262q23 51 84 51
q107 0 107 -69q0 -31 -50 -152q99 -15 172 -66q33 -23 33 -69q-3 -45 -51 -45l-47 2q-11 0 -31 -4l-65 -31q-55 -20 -86 -51q-56 -53 -267 -729q70 -70 70 -117q0 -34 -63 -68q-87 -39 -93 -106q-64 -229 -67 -275q0 -12 6 -12q24 8 49 8q81 0 127 -104q8 -16 8 -33
q0 -43 -69 -49q-22 -3 -37 -12q-42 -20 -70 -23q-31 -6 -49 -18q-17 -12 -27 -53q-43 -261 -43 -410q0 -34 6 -49q5 -17 5 -35q0 -27 -25 -43q-22 -14 -41 -14z" />
    <glyph glyph-name="quotesingle" unicode="'" horiz-adv-x="336" 
d="M80 942q-27 0 -47 19q-23 18 -23 40q0 27 15 72q27 93 59 232q15 55 59 55q119 -12 119 -125q0 -187 -135 -277q-26 -16 -47 -16z" />
    <glyph glyph-name="parenleft" unicode="(" horiz-adv-x="666" 
d="M289 -352h-31q-207 0 -250 364q-8 57 -8 328q0 107 55 367q57 269 150 450q92 189 205 195l79 -11q62 -6 62 -65q0 -42 -78 -80q-94 -46 -164 -268q-70 -223 -106 -467q-33 -204 -33 -391q3 -92 37 -207q21 -76 125 -137q18 -10 18 -29q0 -37 -61 -49z" />
    <glyph glyph-name="parenright" unicode=")" horiz-adv-x="688" 
d="M25 -324q-27 0 -52 17q-12 9 -12 26q0 20 19 43q279 410 393 897q33 139 33 273q0 213 -82 416q-22 50 -52 79q-34 36 -34 52q9 34 47 34q45 0 102 -38q193 -133 193 -592q0 -275 -109 -582q-109 -310 -338 -575q-44 -50 -108 -50z" />
    <glyph glyph-name="asterisk" unicode="*" horiz-adv-x="752" 
d="M322 639q-50 8 -72 47q-23 38 -23 68q0 9 6 30q5 25 5 35t-25 15q-21 0 -37 -25q-7 -13 -14 -18q-3 -3 -8.5 -7.5t-8.5 -7.5q-34 -37 -59 -37q-20 0 -47 27q-37 37 -37 74q9 57 66 86q129 67 129 164q0 69 -64 151q-41 53 -41 72q0 24 25 37q13 8 28 8l33 -17
q14 -14 60 -88q22 -34 32 -34q16 0 37 102q8 37 29 100q15 45 59 45q82 0 82 -92q0 -30 -10 -92q-6 -27 -6 -43q0 -12 4 -12q11 0 76 59q26 25 47 25q29 0 47 -45q6 -20 6 -33q0 -34 -41 -72q-137 -122 -137 -182q0 -51 106 -199q31 -41 31 -65q-9 -37 -45 -37q-25 4 -63 49
q-26 22 -46 55q-21 41 -45 41q-26 0 -26 -47q0 -137 -53 -137z" />
    <glyph glyph-name="plus" unicode="+" horiz-adv-x="1126" 
d="M625 -111q-30 0 -66 31q-75 72 -78 158l-2 43q0 72 15 131q8 32 8 61q0 56 -37 56q-29 0 -82 -27q-106 -53 -182 -53q-35 0 -60 24q-37 39 -37 88q0 41 64 54q85 17 205 53q65 21 129 39q50 12 65 82l51 221q19 76 72 76q5 0 25 -4q86 -23 86 -101q0 -34 -21 -73
q-37 -83 -37 -115q0 -53 91 -53q47 0 120 6q80 0 80 -92q0 -91 -69 -91l-15 3q-124 28 -178 28q-33 0 -59 -20q-29 -23 -41 -199q-4 -66 -4 -100q0 -97 14 -138q6 -21 6 -43q-3 -22 -29 -36q-15 -9 -34 -9z" />
    <glyph glyph-name="comma" unicode="," horiz-adv-x="373" 
d="M45 -295q-41 0 -41 37q0 25 41 102q68 127 68 213q0 41 -9 76v25q0 27 33 30q21 0 39 -6q119 -39 119 -153q0 -100 -64 -195q-89 -129 -186 -129z" />
    <glyph glyph-name="hyphenminus" unicode="-" horiz-adv-x="1001" 
d="M193 315q-59 0 -99 58q-24 33 -24 57q0 34 24 43q20 4 53 4q264 51 418 51q134 0 291 -49q72 -21 72 -94q0 -53 -37 -53q-14 0 -21 2q-6 2 -14 2q-183 37 -293 37q-129 0 -330 -51q-20 -7 -40 -7z" />
    <glyph glyph-name="period" unicode="." horiz-adv-x="309" 
d="M141 -117q-116 3 -116 123q0 123 108 123q55 0 92 -20q31 -16 31 -48q-7 -43 -8 -53q-6 -44 -25 -84q-22 -41 -82 -41z" />
    <glyph glyph-name="slash" unicode="/" horiz-adv-x="561" 
d="M276 -479h-12q-22 0 -39 2q-27 3 -57 28q-34 28 -37 76q3 604 389 1723q25 69 88 75q99 0 99 -100q0 -30 -60 -213q-334 -1006 -334 -1382q0 -79 23 -166q0 -40 -60 -43z" />
    <glyph glyph-name="zero" unicode="0" horiz-adv-x="664" 
d="M209 -8q59 6 115 102q52 92 94 230q37 136 37 204q0 108 -93 172q-17 13 -34 13q-66 0 -154 -394q-31 -136 -31 -215q0 -112 66 -112zM223 -152q-49 0 -98 21q-126 53 -135 203l-2 73q0 356 174 664q40 69 84 72q45 0 94 -41q44 -44 100 -70q53 -27 88 -57
q80 -64 80 -234q0 -118 -53 -295q-54 -179 -190 -284q-68 -52 -142 -52z" />
    <glyph glyph-name="one" unicode="1" horiz-adv-x="373" 
d="M147 -61h-10q-21 0 -53 16q-99 58 -109 166q24 312 66 504q41 181 59 297q9 43 56 49q116 -12 127 -80q0 -41 -9 -76q-90 -348 -114 -676q3 -69 18 -96q9 -24 15 -57q0 -41 -46 -47z" />
    <glyph glyph-name="two" unicode="2" horiz-adv-x="805" 
d="M57 -115q-25 0 -55 23q-65 47 -65 88q0 36 55 82q186 165 309 305q141 156 242 356q16 34 16 52q0 26 -37 26q-30 0 -88 -22q-51 -22 -115 -60q-61 -39 -77 -57q-20 -21 -39 -21q-21 0 -43 19q-51 48 -51 90q0 44 73 96q69 52 230 70q40 4 61 4q114 0 178 -55
q80 -67 80 -148q0 -61 -43 -125q-108 -174 -250 -325q-35 -40 -35 -52q0 -20 62 -20q145 0 240 -94q18 -19 18 -35q0 -37 -41 -37q-82 29 -145 29q-116 0 -287 -101q-86 -48 -121 -65q-48 -23 -72 -23z" />
    <glyph glyph-name="three" unicode="3" horiz-adv-x="760" 
d="M-23 -326q-53 3 -96 25q-41 22 -41 68q0 34 35 34l27 -2q17 0 32 6q406 201 553 572q9 18 9 39q0 39 -50 39l-28 -6q-139 -29 -256 -105q-42 -25 -70 -25q-60 5 -106 78q-17 26 -17 43q0 20 70 72q162 120 287 272q28 36 28 54t-30 18q-48 0 -185 -55q-36 -13 -57 -13
q-57 4 -90 80q-4 12 -4 17q3 32 59 55q113 49 232 49q181 0 243 -121q15 -30 15 -59q-3 -54 -80 -137q-37 -37 -37 -54q0 -19 47 -34q201 -71 201 -222q0 -66 -50 -155q-185 -336 -536 -512q-44 -21 -105 -21z" />
    <glyph glyph-name="four" unicode="4" horiz-adv-x="838" 
d="M553 -113q-31 3 -59 37q-66 81 -66 174q0 78 41 215q14 43 14 64q0 22 -12 22q-26 0 -111 -63q-84 -64 -192 -107q-43 -18 -86 -18q-59 3 -98 47q-43 40 -43 88q3 40 34 82q200 259 451 582q21 30 55 30q36 -3 64 -24q35 -30 35 -66q-3 -31 -25 -59q-319 -395 -319 -418
q0 -8 24 -8q42 0 340 178q21 12 43 12q38 -3 92 -51q25 -21 25 -47q-3 -35 -19 -61q-24 -46 -65 -154q-69 -177 -78 -291q0 -51 8 -74q8 -24 8 -49q0 -41 -61 -41z" />
    <glyph glyph-name="five" unicode="5" horiz-adv-x="700" 
d="M199 -150q-119 16 -119 93q0 13 12 22q6 4 33 8q22 0 35 9q126 84 198 221q11 22 11 35q0 32 -47 32q-231 0 -316 148q-22 38 -22 82t20 88q16 39 33 86q34 94 82 174q49 80 147 129q52 27 88 27q22 0 56 -13q25 -14 57 -14q37 0 74 6q36 6 82 6q40 0 104 -28
q59 -29 59 -72q0 -45 -41 -45q-17 0 -32 6q-32 10 -95 10q-140 0 -280 -96q-141 -96 -180 -275l-2 -24q0 -48 69 -51q45 -2 144 -27q206 -56 206 -188q0 -53 -77 -144q-64 -75 -152 -141q-82 -59 -147 -64z" />
    <glyph glyph-name="six" unicode="6" horiz-adv-x="688" 
d="M203 -39q48 6 155 209q107 201 107 303q-9 68 -84 68q-106 0 -150 -90q-77 -159 -77 -359q0 -131 49 -131zM242 -184q-31 0 -74 16q-157 58 -184 256q-17 145 -17 164q0 114 58 340q56 222 147 401q82 156 141 162q73 -12 82 -61q0 -24 -10 -56l-84 -202
q-61 -150 -61 -213q0 -33 22 -33q15 0 33 12q62 35 123 35q57 0 110 -31q74 -46 74 -147q-15 -284 -192 -545q-67 -98 -168 -98z" />
    <glyph glyph-name="seven" unicode="7" horiz-adv-x="649" 
d="M158 -387q-69 0 -97 70q-20 49 -20 102q0 17 4 49q33 175 100 352q116 306 211 488q52 97 52 110q0 31 -76 31q-64 0 -195 -27q-66 -14 -96 -14q-39 0 -74 23q-34 22 -37 69q0 32 23 39q10 2 31 2q313 29 544 113q25 8 54 8q58 0 102 -53q21 -21 21 -45q0 -27 -31 -78
q-270 -432 -418 -905q-39 -121 -39 -215q0 -57 -6 -84q-9 -29 -53 -35z" />
    <glyph glyph-name="eight" unicode="8" horiz-adv-x="721" 
d="M371 510q13 0 22 20l47 99q70 149 84 299q0 59 -63 59q-230 -24 -375 -190q-27 -31 -27 -54q0 -31 66 -65q118 -59 209 -150q15 -18 37 -18zM211 -74q30 0 57 58q54 113 54 274q0 25 -7 86q-6 53 -43 53q-46 0 -79 -219q-15 -86 -15 -180q0 -56 12 -64q9 -8 21 -8z
M258 -233q-45 0 -98 26q-122 58 -142 191q-4 52 -4 84q0 94 33 217q35 125 86 215q8 13 8 28q0 45 -106 103q-129 71 -129 143q0 16 16 66q14 38 162 137q168 110 356 110q121 0 197 -55q70 -46 70 -141q0 -100 -140 -371q-82 -152 -94 -321q-24 -292 -123 -394
q-32 -38 -92 -38z" />
    <glyph glyph-name="nine" unicode="9" horiz-adv-x="870" 
d="M340 -428q-98 0 -219 121q-29 27 -29 43q0 24 31 24q13 0 35 -10q51 -26 94 -26q91 0 158 122q24 47 96 322q63 237 63 334q-3 41 -16 41q-15 0 -154 -162l-219 -258q-64 -73 -133 -76q-27 0 -57 10q-143 59 -146 150q0 106 103 276q199 403 391 521q47 27 94 30
q75 0 152 -67q14 -13 14 -37q0 -38 -27 -41q-13 0 -26 8q-20 6 -35 6q-61 0 -184 -170q-140 -194 -238 -377q-53 -95 -53 -123q0 -8 4 -8q9 0 41 33q263 270 491 561q34 40 64 43q15 0 37 -6q88 -27 88 -106q-45 -376 -51 -418q-90 -605 -293 -735q-34 -22 -76 -25z" />
    <glyph glyph-name="colon" unicode=":" horiz-adv-x="309" 
d="M141 -117q-116 3 -116 123q0 123 108 123q55 0 92 -20q31 -16 31 -48q-7 -43 -8 -53q-6 -44 -25 -84q-22 -41 -82 -41zM141 676q-116 3 -116 123q0 123 108 123q53 0 92 -21q31 -15 31 -47q-7 -42 -8 -53q-6 -46 -25 -84q-21 -41 -82 -41z" />
    <glyph glyph-name="semicolon" unicode=";" horiz-adv-x="340" 
d="M45 -295q-41 0 -41 37q0 25 41 102q68 127 68 213q0 41 -9 76v25q0 27 33 30q21 0 39 -6q119 -39 119 -153q0 -100 -64 -195q-89 -129 -186 -129zM141 676q-116 3 -116 123q0 123 108 123q53 0 92 -21q31 -15 31 -47q-7 -42 -8 -53q-6 -49 -25 -86q-20 -39 -82 -39z" />
    <glyph glyph-name="less" unicode="&#x3c;" horiz-adv-x="627" 
d="M518 203q-69 0 -215 35q-268 62 -268 225q0 36 53 115q51 74 121 141q74 74 117 74q63 0 98 -62q8 -13 8 -26q0 -28 -37 -62l-5 -5q-5 -4 -14.5 -13t-19.5 -19q-65 -65 -127 -123q-39 -39 -39 -59q0 -3 13 -21q9 -15 125 -30q115 -20 209 -80q41 -30 41 -57
q0 -33 -60 -33z" />
    <glyph glyph-name="equal" unicode="=" horiz-adv-x="1032" 
d="M90 563q-59 0 -98 58q-25 32 -25 55q0 36 25 45q20 4 53 4q296 51 514 51q166 0 328 -49q67 -21 67 -94q0 -53 -34 -53q-15 0 -21 2q-156 39 -340 39q-181 0 -428 -52q-21 -6 -41 -6zM90 254q-60 0 -98 57q-25 34 -25 56q0 36 25 45q20 4 53 4q296 51 514 51
q166 0 328 -49q67 -22 67 -94q0 -54 -34 -54q-15 0 -21 2q-150 39 -340 39q-186 0 -428 -51q-21 -6 -41 -6z" />
    <glyph glyph-name="greater" unicode="&#x3e;" horiz-adv-x="633" 
d="M145 127q-40 0 -73 41q-17 22 -17 41q0 22 41 57l8 4q100 91 138 121q127 103 127 137q0 1 -0.5 3.5l-1.5 7.5l-2 10q-4 17 -263 100q-46 16 -71 47q-21 21 -21 52q9 53 29 53q22 0 47 -15q17 -8 35 -12q171 -27 319 -112q113 -65 113 -162q0 -54 -45 -105
q-128 -146 -303 -250q-31 -18 -60 -18z" />
    <glyph glyph-name="question" unicode="?" horiz-adv-x="889" 
d="M270 -31q-47 0 -114 31q-63 29 -72 104q0 69 57 144q225 304 363 510q123 183 217 391q51 114 51 186q0 33 -12 58q-28 51 -88 51q-27 0 -82 -14q-59 -17 -164 -123q-35 -35 -55 -90q-35 -88 -68 -91q-16 0 -22 2q-91 41 -91 113q0 6 5 31q28 97 122 182q100 86 177 94
q39 6 79 6q99 0 172 -28q218 -84 218 -258q0 -227 -498 -899l-146 -195q-40 -60 -40 -84q3 -23 36 -35q33 -14 33 -43q0 -43 -78 -43zM342 -479q-65 0 -68 106q-2 17 -2 54q0 55 15 92q15 40 90 49q35 0 65 -15q33 -14 33 -77q0 -172 -119 -205z" />
    <glyph glyph-name="at" unicode="@" horiz-adv-x="1546" 
d="M432 -354q-433 0 -455 426q0 2 1.5 16t4 44.5t5.5 64.5q9 113 133 323q121 207 291 371q307 292 641 295q312 -26 415 -316q35 -96 35 -196q0 -110 -51 -275q-54 -171 -276 -358q-50 -41 -109 -41q-165 0 -229 178q-22 61 -43 64q-21 0 -66 -37q-57 -49 -205 -144
q-47 -28 -84 -28q-61 0 -112 59q-33 39 -33 74q0 69 225 317q96 105 228 172q32 19 67 19q71 0 105 -51q12 -19 12 -37q0 -16 -10 -39q-13 -21 -31 -21q-23 0 -37 13q-18 12 -31 12q-18 0 -45 -16q-97 -66 -176 -160q-110 -134 -110 -166q0 -8 8 -8q53 18 182 123
q103 80 139 120q28 31 58 31q21 0 49 -12q63 -31 63 -101q-4 -37 -16 -69q-17 -46 -17 -78q0 -33 37 -51q22 -12 45 -12q57 0 144 90q205 211 205 430q0 110 -60 227q-89 176 -256 176q-33 0 -78 -10q-312 -77 -565 -367q-254 -290 -278 -610v-25q0 -270 274 -270
q138 0 471 98q162 50 184 50q27 0 27 -17q0 -7 -8 -26q-10 -28 -101 -91q-95 -65 -235 -114q-190 -47 -332 -47z" />
    <glyph glyph-name="A" unicode="A" horiz-adv-x="745" 
d="M262 393q22 0 49 6q73 16 82 72l10 66q37 188 37 270q0 35 -8 35q-17 0 -137 -240q-74 -154 -74 -192q0 -17 41 -17zM625 -385q-47 0 -86 41q-68 74 -97 188q-26 100 -45 217q-12 81 -24 127q-17 48 -37 48q-97 0 -158 -21q-60 -20 -82 -109q-7 -32 -10 -75
q-21 -167 -47 -185q-15 -12 -37 -12q-32 0 -68 27q-69 44 -69 116q0 32 16 74q15 41 15 62q0 22 -23 22q-19 0 -78 -24q-55 -27 -76 -27q-32 0 -59 37q-31 34 -31 80q0 45 54 73q53 26 135 41q145 32 192 76l430 899q56 109 164 109q40 0 82 -13q72 -25 72 -73
q0 -47 -21 -107q-159 -590 -159 -954q0 -378 96 -541q20 -31 20 -47t-22 -33q-24 -16 -47 -16z" />
    <glyph glyph-name="B" unicode="B" horiz-adv-x="1040" 
d="M311 799q32 0 119 94q99 99 195 246q49 81 49 114q0 25 -27 25q-176 0 -317 -223q-10 -14 -19 -58q-22 -93 -22 -145q0 -53 22 -53zM127 -401q-4 0 -13 0.5t-25.5 1.5t-31.5 2q-54 3 -90 39q-8 8 -8 18q0 26 68 53q94 35 245 142q147 101 299 243q149 141 217 269
q37 64 37 118q0 57 -37 97q-56 57 -163 57q-17 0 -95 -6q-81 -10 -188 -66q-112 -58 -133 -174q-21 -120 -21 -192q0 -70 7 -119v-19q0 -63 -66 -63q-28 0 -55 18q-56 41 -68 97q-8 32 -8 75q0 60 92 623q23 148 23 184q0 31 -15 31q-12 0 -47 -41q-59 -65 -102 -65
q-8 0 -35 6q-28 3 -43 76q0 57 121 155q121 97 309 187q219 104 387 104q146 0 217 -121q10 -27 10 -49q0 -120 -243 -362q-103 -109 -103 -127q0 -8 19 -11q169 -21 284 -84q113 -64 113 -235q-3 -175 -125 -336q-122 -158 -289 -293q-161 -129 -295 -199q-73 -34 -149 -34
z" />
    <glyph glyph-name="C" unicode="C" horiz-adv-x="973" 
d="M264 -358q-282 0 -282 335q33 723 503 1276q71 78 160 78q21 0 53 -2q49 -3 99 -86q24 -43 24 -102q0 -27 -6 -62q-27 -118 -92 -118q-31 0 -37 26q-6 29 -6 57q0 33 -2 58q-3 35 -23 35q-47 0 -112 -99q-232 -335 -305 -719q-39 -192 -39 -325q0 -118 34 -172
q16 -33 78 -33q131 0 480 256l26 25q39 41 66 41q12 0 37 -15q23 -14 26 -33q0 -56 -67 -133q-74 -81 -224 -166q-150 -87 -315 -114q-36 -8 -76 -8z" />
    <glyph glyph-name="D" unicode="D" horiz-adv-x="909" 
d="M203 -16q67 3 243 356q117 229 209 463q115 297 115 409q0 142 -154 142q-78 -3 -139 -31q-58 -30 -67 -74q-88 -404 -111 -491q-88 -331 -123 -670q3 -104 27 -104zM100 -231q-36 0 -69 18q-47 27 -47 174q0 129 34 344q48 290 88 455q33 129 33 166q0 40 -49 55
q-50 15 -53 72q0 10 4 30q65 234 360 340q138 52 244 52q121 0 201 -68q69 -63 69 -231q0 -46 -8 -158q-9 -131 -102 -369q-101 -257 -230 -456q-135 -216 -278 -332q-113 -92 -197 -92z" />
    <glyph glyph-name="E" unicode="E" horiz-adv-x="842" 
d="M319 -207q-59 0 -102 12q-194 72 -209 295q-3 150 -10 162q-8 14 -35 14q-45 -5 -90 -16q-24 -6 -45 -6q-31 0 -45 14q-43 34 -43 88q0 51 92 66q133 18 184 106q21 24 68 207q41 166 41 199q-3 35 -84 35h-27q-23 0 -39 26q-15 29 -18 58q0 48 59 69q34 13 62 21
q58 15 104 47q47 27 74 98q24 70 104 70q74 0 74 -39l-2 -12q-8 -31 -8 -45q0 -31 57 -31q195 29 293 29q76 0 123 -15q63 -22 66 -84q0 -51 -39 -51q-530 0 -582 -117q-8 -33 -35 -96q-80 -213 -80 -287q0 -55 74 -55q28 0 121 18q117 27 229 27q180 0 189 -117
q0 -50 -60 -53q-61 0 -184 8q-130 0 -254 -37q-112 -32 -143 -79q-19 -28 -19 -76q0 -323 88 -326q114 0 232 103q28 22 49 22q17 0 37 -18q16 -21 16 -41q0 -90 -166 -166q-49 -24 -117 -27z" />
    <glyph glyph-name="F" unicode="F" horiz-adv-x="731" 
d="M104 -313q-12 0 -67 6q-54 6 -62 86q-8 71 -8 133q0 134 17 258q4 54 4 68q0 53 -27 53l-145 2q-117 3 -117 61q0 10 8 45q6 37 213 60q9 1 64 8q52 12 67 86q84 429 84 446q-195 -43 -285 -43q-79 0 -90 33q-4 20 -4 27q0 82 295 141q70 9 125 43q48 30 57 115
q7 45 82 45q67 0 88 -66q14 -43 82 -43q51 0 342 39q88 0 125 -33q25 -21 25 -51q0 -19 -14 -51q-17 -34 -168 -37q-124 -3 -228 -14q-189 -21 -205 -53q-124 -460 -124 -498q3 -25 45 -25l127 2q301 0 301 -67q-13 -76 -72 -76q-114 0 -383 -31q-71 -9 -92 -182
q-25 -172 -25 -246q0 -68 23 -188v-14q0 -39 -58 -39z" />
    <glyph glyph-name="G" unicode="G" horiz-adv-x="1227" 
d="M852 -547q-36 0 -66 27q-64 64 -73 231q0 176 57 430q25 131 25 166q0 17 -7 17q-12 0 -202 -218q-176 -192 -267 -286q-70 -67 -153 -70q-65 0 -129 37q-119 85 -119 231q0 50 31 183q26 129 178 381q138 235 307 446q158 194 250 270q87 74 180 74q230 0 230 -213
q0 -77 -70 -123q-17 -9 -41 -12q-15 0 -31 12q-14 11 -14 33q0 18 10 41q27 55 27 90q0 29 -23 29t-61 -27q-153 -107 -326 -325q-175 -220 -301 -465q-130 -252 -145 -447q0 -39 18 -39q21 3 70 47l461 469q12 10 12 31q-3 20 -16 23q-11 2 -31 2q-77 0 -117 82
q-5 9 -10 32q0 45 59 50q76 4 168 22q191 36 291 39q84 0 158 -18q82 -22 100 -132q0 -46 -45 -49q-18 0 -39 6q-20 7 -47 7q-215 -8 -215 -789q0 -51 4 -215q0 -80 -88 -80z" />
    <glyph glyph-name="H" unicode="H" horiz-adv-x="1112" 
d="M817 -506h-10q-62 0 -96 55q-34 51 -43 132q-3 21 -6 157q0 274 26 424q6 32 6 55q0 103 -88 103q-131 0 -276 -45q-75 -22 -92 -39q-30 -45 -50 -137q-20 -97 -20 -187q0 -69 20 -166q0 -47 -73 -47q-126 0 -135 90l-3 50q0 82 23 174q23 90 23 137q0 57 -64 57
q-87 0 -111 21q-32 29 -32 100q0 42 20 53q21 10 105 19q88 9 120 49q34 38 56 127q43 194 90 348l24 84q11 41 66 41q14 0 65 -6q52 -9 52 -62q0 -30 -6 -51q-101 -307 -101 -379q0 -94 90 -94q85 0 260 33q104 21 119 88q39 158 127 498q52 199 127 202q70 0 70 -88
q0 -78 -96 -528q-150 -639 -150 -967q0 -88 25 -235v-13q0 -50 -62 -53z" />
    <glyph glyph-name="I" unicode="I" horiz-adv-x="625" 
d="M-137 -274q-16 0 -49 6q-35 6 -35 69q0 34 22 58q20 16 93 51q70 30 102 80q29 48 102 465q121 662 121 675q0 27 -12 27q-27 0 -107 -43q-117 -69 -188 -72q-54 0 -84 50q-10 23 -10 53q0 31 71 55q418 180 611 197q71 6 118 6q156 0 156 -82q0 -10 -2 -25
q-3 -22 -72 -28q-107 -11 -174 -29q-56 -14 -82 -68q-27 -57 -71 -247q-122 -454 -137 -764l-3 -17q5 -59 33 -59q26 0 66 16q76 33 184 33q105 -3 105 -96q0 -59 -111 -62q-113 -3 -234 -53q-127 -56 -331 -172q-40 -24 -82 -24z" />
    <glyph glyph-name="J" unicode="J" horiz-adv-x="618" 
d="M-227 -637q-99 0 -187 102q-22 27 -22 46q0 12 12 24t27 12q11 0 37 -12q57 -22 102 -22q214 0 352 440q118 376 193 950q24 191 24 211q0 60 -59 60q-85 0 -272 -80q-87 -39 -125 -39q-15 0 -56 65q-8 13 -8 29q0 47 96 82q221 81 664 143q132 21 229 21q28 0 66 -4
q84 -29 84 -84q0 -54 -82 -54q-15 0 -43 4q-14 3 -39 3q-118 0 -176 -15q-50 -12 -66 -57q-13 -38 -28 -176q-163 -1523 -672 -1643q-29 -6 -51 -6z" />
    <glyph glyph-name="K" unicode="K" horiz-adv-x="856" 
d="M825 -410q-33 0 -88 19q-53 18 -147 129q-103 116 -195 233q-98 124 -168 265q-15 32 -26 32q-35 -3 -35 -270q0 -91 8 -156q0 -67 -65 -67q-125 0 -132 190q0 89 19 203q18 86 18 154q0 86 -67 116q-23 12 -23 33q0 32 39 47q89 40 109 162q63 314 129 604q21 87 88 90
q40 0 71 -28q28 -28 31 -72q0 -20 -6 -47q-92 -288 -92 -379q0 -62 16 -62q12 0 39 27l144 145q259 250 493 545q32 35 80 35h31q27 -3 49 -43q8 -11 8 -27q0 -31 -29 -71q-354 -430 -772 -795q-45 -36 -45 -72q0 -21 8 -34q107 -226 246 -430q132 -197 342 -361
q31 -27 31 -57q0 -31 -57 -49q-22 -9 -52 -9z" />
    <glyph glyph-name="L" unicode="L" horiz-adv-x="717" 
d="M-152 -332h-14q-93 0 -108 76q0 44 98 84q180 76 180 248v45l-6 125q0 582 203 1253q21 66 73 66q43 0 78 -19q35 -21 35 -53q0 -7 -4 -25q-207 -839 -207 -1267l2 -78q22 -156 144 -156q115 0 290 43q72 18 164 33q77 0 115 -41q36 -44 39 -84q0 -55 -45 -55h-94
q-200 0 -584 -117q-267 -75 -359 -78z" />
    <glyph glyph-name="M" unicode="M" horiz-adv-x="1317" 
d="M1026 -322q-114 0 -123 99q-12 98 -12 160q3 200 67 514q11 107 86 342q54 179 54 198q-8 0 -72 -147q-16 -37 -133 -291q-196 -414 -324 -520q-32 -31 -65 -31q-31 0 -60 41q-64 119 -67 262q-4 188 -4 268q0 146 10 314v61q-25 0 -141 -538q-85 -392 -88 -496
q-3 -76 -72 -76q-41 0 -82 35q-39 33 -39 100q0 27 41 267q82 482 209 872q71 213 166 213q66 0 127 -43t61 -231l-10 -641q0 -41 14 -41q36 0 230 374q75 146 207 383q233 410 352 410q13 0 28 -6q60 -32 60 -88q0 -21 -10 -51q-176 -489 -269 -830q-96 -369 -96 -579
q0 -151 59 -218q13 -12 13 -24q0 -15 -23 -33q-29 -29 -94 -29z" />
    <glyph glyph-name="N" unicode="N" horiz-adv-x="1137" 
d="M150 -289h-9q-23 0 -43 8q-93 35 -102 105q-2 8 -2 108q0 535 104 1069q50 361 275 361q114 0 147 -131l37 -236q45 -298 127 -626q27 -103 43 -103q14 3 25 92q76 450 237 1069l12 68q23 164 123 164q117 0 129 -82q0 -33 -14 -68q-55 -160 -147 -491
q-211 -740 -211 -1022q0 -50 12 -105q0 -32 -33 -51q-31 -20 -78 -20q-79 0 -118 71q-213 316 -277 777q-61 407 -74 407q-9 0 -24 -57q-44 -134 -92 -582q-31 -300 -31 -452q0 -51 4 -97q3 -35 27 -67q10 -13 22 -47q0 -17 -20 -37q-22 -22 -49 -25z" />
    <glyph glyph-name="O" unicode="O" horiz-adv-x="934" 
d="M311 -121q42 0 86 31q211 151 351 833q55 277 55 373q0 25 -2 33q-28 223 -209 223q-29 0 -43 -2q-23 -3 -47 -20q-23 -17 -101 -195q-79 -185 -145 -455q-55 -224 -55 -471q3 -286 86 -344q9 -6 24 -6zM297 -238q-111 0 -195 88q-98 106 -98 340v46q21 689 361 1316
q44 94 110 103q21 0 45 -4q127 -29 139 -119q4 -55 13 -62q10 -7 45 -18q244 -111 244 -352q0 -130 -56 -418q-97 -525 -321 -780q-122 -140 -287 -140z" />
    <glyph glyph-name="P" unicode="P" horiz-adv-x="852" 
d="M227 219q15 3 74 62q347 347 530 780q35 96 35 160q0 157 -217 157q-31 0 -114 -12q-84 -15 -150 -55q-67 -40 -82 -166q-29 -286 -72 -529q-47 -276 -47 -331q0 -66 29 -66h14zM61 -340h-18q-96 0 -96 102q52 615 164 1231q8 47 8 76q-3 23 -17 23q-6 0 -12 -2
q-6 -3 -29 -86q-12 -89 -69 -89q-68 0 -68 107q0 60 33 113q47 69 119 145q69 57 84 127q9 35 71 35q132 0 222 26q99 31 192 31q160 0 275 -86q127 -95 127 -258q0 -55 -21 -111q-48 -123 -74 -153q-194 -360 -469 -655q-92 -109 -209 -121q-19 0 -75 4q-63 0 -78 -371
q-9 -85 -60 -88z" />
    <glyph glyph-name="Q" unicode="Q" horiz-adv-x="948" 
d="M338 -123q24 0 45 8q102 31 102 131q0 23 -2 31q-43 273 -43 381q0 1 4 217q3 160 95 160q89 0 92 -82q-2 -68 -2 -289q0 -180 22 -180q10 0 56 184q106 414 106 584q0 29 -2 43q-47 225 -168 225q-52 0 -117 -35q-149 -76 -266 -565q-11 -43 -31 -190q-24 -197 -24 -324
q0 -299 133 -299zM754 -387q-102 0 -185 137q-12 25 -47 25q-16 0 -47 -8q-56 -15 -133 -15q-132 0 -215 92q-112 127 -127 324v82q0 442 164 803q166 366 405 366q211 0 312 -131q82 -106 82 -268q0 -68 -9 -123q-67 -480 -239 -911q-8 -20 -8 -47q0 -52 32 -115
q35 -65 84 -90q49 -28 49 -60q0 -61 -118 -61z" />
    <glyph glyph-name="R" unicode="R" horiz-adv-x="817" 
d="M250 475q51 0 168 123q113 119 235 291q113 159 152 231q31 64 31 103q-3 75 -119 75h-64q-67 -3 -198 -38q-137 -41 -152 -168q-110 -476 -110 -588q0 -29 57 -29zM817 -502q-108 0 -215 107q-255 230 -379 557q-21 67 -39 67q-32 0 -32 -272q-3 -108 -70 -111
q-16 0 -47 17q-59 33 -68 239q0 211 66 553q43 215 43 260q0 7 -4 35q-3 22 -49 54q-54 37 -54 77t49 80l52 43q92 65 118 139q3 25 23 25q62 -12 88 -12q86 3 203 41q123 39 270 39q142 0 232 -142q21 -39 24 -82q0 -84 -88 -208q-211 -350 -530 -613q-41 -33 -41 -76
q3 -24 12 -51q173 -443 485 -670q21 -14 21 -34q0 -62 -70 -62z" />
    <glyph glyph-name="S" unicode="S" horiz-adv-x="770" 
d="M102 -344q-65 0 -65 33q0 27 72 69q65 39 147 127q131 137 131 228q0 58 -209 178t-209 348q0 43 23 172q20 122 145 330q119 203 289 360q40 37 121 82q94 49 170 49q110 0 180 -125q18 -30 18 -61q0 -34 -18 -62q-21 -30 -51 -30q-1 0 -29 4q-24 3 -24 45q0 78 -52 78
q-18 0 -36 -6q-118 -41 -226 -185q-112 -150 -190 -321q-117 -255 -117 -367q0 -28 12 -67q9 -39 74 -72q327 -176 367 -246q26 -45 26 -102q0 -67 -59 -156q-54 -82 -205 -195q-149 -108 -285 -108z" />
    <glyph glyph-name="T" unicode="T" horiz-adv-x="586" 
d="M258 -231h-6q-15 0 -45 10q-124 42 -158 205q-18 100 -18 198q0 276 98 656q48 187 84 303q10 33 10 49q0 18 -10 18q-32 0 -250 -112q-216 -113 -270 -113q-52 0 -70 80q-4 20 -4 27q0 54 72 75q70 22 293 119q213 93 411 160q201 68 418 80l39 -2q147 -9 147 -97
q0 -74 -34 -102q-8 -4 -15 -4q-14 0 -61 24q-52 31 -139 31q-112 0 -213 -57q-94 -51 -127 -154q-199 -656 -199 -1034q0 -180 74 -266q18 -19 18 -41q0 -50 -45 -53z" />
    <glyph glyph-name="U" unicode="U" horiz-adv-x="1012" 
d="M782 -250h-16q-83 0 -92 96q-10 202 -10 246q0 132 16 266q20 191 20 273q-3 49 -14 49q-18 -4 -53 -84q-168 -395 -195 -455q-34 -75 -76 -129q-55 -78 -174 -78q-108 0 -172 89q-32 58 -32 182q0 69 16 229q16 164 66 393q53 255 84 353q12 45 65 45q14 0 59 -6
q45 -10 45 -60q0 -40 -14 -92q-22 -80 -76 -426q-53 -329 -53 -436q0 -29 2 -70q0 -63 19 -63q34 3 632 1167q31 51 93 51q111 0 114 -53q0 -39 -14 -74q-184 -506 -184 -1044q0 -52 4 -158q6 -46 20 -84q15 -41 15 -78q0 -40 -95 -49z" />
    <glyph glyph-name="V" unicode="V" horiz-adv-x="817" 
d="M150 -334q-82 0 -140 107q-49 94 -49 200q0 210 76 645q88 519 203 519q1 0 5.5 -0.5t15 -1.5t22.5 -2q38 -7 41 -78l2 -11q0 -17 -7 -34q-38 -131 -77 -322q-88 -418 -88 -639q0 -102 24 -102q24 3 66 71q312 522 448 787q129 299 129 389q-3 86 -30 109q-19 12 -19 36
q0 64 62 93q16 8 34 8t29 -8q76 -46 82 -164l2 -19q0 -203 -162 -563q-117 -267 -270 -528q-289 -486 -399 -492z" />
    <glyph glyph-name="W" unicode="W" horiz-adv-x="1219" 
d="M80 -182h-29q-124 9 -133 131q0 236 47 553q41 268 131 766q9 81 66 84q104 0 110 -80q0 -19 -4 -39q-151 -850 -151 -887q0 -39 16 -39q18 0 62 133q39 132 153 369q138 289 240 289q96 -9 96 -72v-35q-8 -209 -8 -338q0 -169 10 -329q18 -295 70 -295q7 0 22 6
q13 5 78 139q62 134 129 365q96 331 96 598q-9 218 -59 303q-10 20 -10 39q0 13 12 28q11 15 35 15q23 0 49 -19q104 -70 125 -168q14 -55 14 -125q0 -125 -43 -368q-32 -199 -98 -426q-144 -512 -324 -512h-90q-91 3 -143 149q-72 233 -72 482q0 51 2 73q2 23 2 49
q0 29 -10 29l-14 -6q-21 -16 -262 -743q-22 -113 -115 -119z" />
    <glyph glyph-name="X" unicode="X" horiz-adv-x="983" 
d="M827 -328q-63 0 -155 129q-95 128 -129 232q-113 323 -127 344q-92 -81 -168 -262q-77 -177 -111 -303q-24 -91 -67 -91q-70 0 -70 93q0 40 14 120q15 93 95 242q88 168 188 336q43 70 43 94q0 17 -59 205q-69 200 -146 504q0 39 37 63q46 32 98 35q80 0 103 -78
q84 -368 104 -454q9 -54 35 -54q50 0 231 179q367 356 537 362q41 0 86 -39q44 -37 47 -76q0 -38 -80 -77q-24 -13 -59 -17q-180 -9 -451 -295q-180 -194 -202 -227q-48 -48 -48 -80q0 -29 11 -68q50 -138 59 -165q127 -403 285 -508q43 -29 43 -58q0 -20 -39 -51
q-39 -32 -105 -35z" />
    <glyph glyph-name="Y" unicode="Y" horiz-adv-x="989" 
d="M741 -838h-8q-196 9 -207 500q0 28 5 145q4 100 41 348q37 245 61 330q20 82 20 95q-6 0 -47 -80q-264 -539 -448 -539q-10 0 -88 12q-80 11 -105 191q-10 56 -10 293q0 214 70 555q46 209 67 288q41 107 117 107q82 0 82 -74q0 -51 -33 -180q-104 -389 -104 -756
q0 -89 4 -164q4 -69 28 -69q25 0 54 29q47 54 197 316q186 326 307 548q153 279 204 389q23 46 74 47q49 0 72 -26q22 -25 22 -54q0 -27 -14 -57q-71 -147 -157 -434q-91 -298 -146 -643q-60 -376 -60 -631q0 -33 2 -97q13 -199 105 -288q20 -20 20 -37q0 -22 -43 -41
q-43 -22 -82 -23z" />
    <glyph glyph-name="Z" unicode="Z" horiz-adv-x="965" 
d="M-276 -373q-56 0 -97 78q-14 27 -14 49q0 44 160 140q160 94 438 354q284 265 373 395q92 136 92 160q0 54 -98 98q-144 62 -367 62q-76 0 -133 -13q-30 -4 -37 -4q-76 0 -88 98q0 97 235 97q93 0 226 -21q146 -22 293 -96q147 -75 182 -207q4 -28 4 -43
q0 -113 -145 -270q-156 -156 -308 -295q-159 -147 -159 -160q0 -20 75 -20q61 0 342 34q230 23 371 23q38 0 94 -4q83 -16 137 -72q59 -59 62 -96q0 -39 -49 -39q-22 0 -49 6q-243 47 -369 47q-153 0 -475 -49q-328 -50 -627 -227q-38 -25 -69 -25z" />
    <glyph glyph-name="bracketleft" unicode="[" horiz-adv-x="660" 
d="M180 -424h-47q-44 0 -110 78q-56 65 -56 162q19 298 87.5 611t205.5 709q10 29 14 54q0 27 -24 30q-35 9 -35 66q0 99 92 125q77 18 156 24q56 4 80 9q30 6 61 6q65 0 127 -35q51 -28 51 -68q0 -39 -61 -39h-51q-164 0 -222 -180q-137 -423 -206.5 -735.5t-89.5 -578.5
v-43q0 -56 30 -56q23 0 78 41q41 35 70 35q41 0 41 -43q0 -26 -29 -70q-75 -102 -162 -102z" />
    <glyph glyph-name="backslash" unicode="\" horiz-adv-x="383" 
d="M506 -367q-6 0 -39 5q-30 3 -61 63q-232 521 -406 1071q-102 298 -129 614q0 49 31 76q44 43 104 43q66 0 66 -43q-11 -55 -11 -106q0 -273 244 -895q71 -180 270 -664q17 -43 17 -73q0 -31 -17 -54q-28 -37 -69 -37z" />
    <glyph glyph-name="bracketright" unicode="]" horiz-adv-x="823" 
d="M154 -405h-12q-70 0 -135 48q-38 25 -41 57q0 10 7 25q8 15 24 16q4 -1 17.5 -2.5t21.5 -3.5q19 -6 33 -6h6q59 5 78 36q104 162 203 690q116 631 116 795v18q-4 57 -30 87q-31 27 -158 31q-34 2 -55 17q-24 14 -25 42q1 4 4 13.5t4 12.5t4.5 9t7 8t9.5 4t15 3l19 1
q67 0 209 -30q174 -42 186 -214v-19q0 -17 -2 -55q-27 -312 -110 -641q-18 -73 -94 -398l-83 -348q-29 -125 -141 -175q-43 -20 -78 -21z" />
    <glyph glyph-name="asciicircum" unicode="^" horiz-adv-x="639" 
d="M-2 657q-33 0 -33 35q0 54 105 230q112 198 243 198q27 0 52 -8q35 -12 94 -86q51 -68 98 -158q37 -73 37 -114q0 -13 -2 -19q-17 -59 -88 -76h-15q-36 0 -61 54q0 2 -22 51q-56 104 -80 156q-30 50 -45 55q-8 0 -23 -6q-18 -6 -68 -109q-53 -107 -137 -178
q-31 -25 -55 -25z" />
    <glyph glyph-name="underscore" unicode="_" horiz-adv-x="1315" 
d="M1184 -295q-15 0 -21 2t-12 2q-256 51 -569 51q-245 0 -451 -34q-20 -7 -41 -7q-59 0 -98 58q-25 32 -25 55q0 49 68 49q209 29 487 29q278 -3 404 -12q123 -15 225 -45q68 -23 68 -95q0 -53 -35 -53z" />
    <glyph glyph-name="grave" unicode="`" horiz-adv-x="473" 
d="M338 932q-32 0 -59 29q-248 260 -261 282q-8 16 -8 29q0 11 10 33q23 34 68 34q106 0 238 -184q82 -119 82 -170q0 -21 -23 -37q-22 -16 -47 -16z" />
    <glyph glyph-name="a" unicode="a" horiz-adv-x="715" 
d="M602 -10q-11 0 -29 4q-161 52 -161 242q0 67 -15 67q-3 0 -100 -125q-63 -80 -107 -129q-51 -59 -104 -59q-38 0 -80 22q-84 47 -84 144q0 22 6 51q53 258 246 512q80 104 166 104q55 0 96 -32q43 -34 43 -60t-8 -39q-21 -43 -49 -43t-45 10q-13 9 -29 13q-10 0 -33 -29
q-83 -112 -176 -356q-12 -31 -12 -43q0 -11 6 -11q31 0 176 183q186 231 226 243q20 7 38 7q15 0 27 -4q57 -31 57 -117q0 -31 -10 -76q-37 -154 -37 -262q0 -81 35 -162q8 -13 8 -27q0 -28 -51 -28z" />
    <glyph glyph-name="b" unicode="b" horiz-adv-x="756" 
d="M352 -303h-69q-113 0 -113 63q0 11 2 23q0 17 21 20q24 0 34 -2q22 -4 31 -4q14 0 29 2q17 0 41 29q216 269 237 608q0 72 -26 72q-34 0 -62 -19q-290 -187 -305 -491q-6 -115 -94 -115q-78 0 -78 193q0 43 8 168q6 144 76 524q37 204 66 416q12 92 81 92q115 0 121 -88
v-41q-100 -528 -100 -602q0 -37 10 -37q19 0 60 27q125 79 215 79q206 0 206 -206q0 -363 -266 -648q-57 -60 -125 -63z" />
    <glyph glyph-name="c" unicode="c" horiz-adv-x="557" 
d="M223 -78q-133 0 -219 127q-37 54 -37 137q0 159 109 404q62 144 127 225q44 57 123 57q147 0 147 -92q0 -16 -10 -26q-14 -11 -64 -25q-70 -22 -114 -115q-111 -224 -111 -471q0 -64 45 -92q13 -8 27 -8q46 0 190 160q19 20 47 20h27q22 0 22 -24q-12 -97 -67 -170
q-82 -107 -242 -107z" />
    <glyph glyph-name="d" unicode="d" horiz-adv-x="809" 
d="M188 4q17 0 64 139q60 181 139 387q92 243 92 301q0 25 -12 25q-14 0 -47 -35q-254 -278 -254 -745v-47q0 -25 18 -25zM745 -588h-4q-77 0 -145 189q-66 181 -66 477q0 339 11 436q0 12 -4 12q-8 0 -29 -65q-143 -439 -158 -479q-64 -181 -160 -181q-137 0 -174 148
q-20 79 -20 184q0 386 237 748q72 103 189 106q117 0 151 78q36 79 74 209l92 309q29 89 74 92q21 0 45 -4q83 -21 86 -80q0 -42 -35 -164q-92 -311 -131 -471q-84 -341 -84 -788q0 -107 2 -272q0 -250 103 -408q24 -15 24 -43q0 -30 -78 -33z" />
    <glyph glyph-name="e" unicode="e" horiz-adv-x="647" 
d="M209 356q55 39 102 129q74 136 74 168q0 17 -20 17q-14 0 -23 -11q-154 -263 -154 -282q0 -18 21 -21zM287 -74q-312 0 -312 289q0 17 13 121q9 93 86 246q138 270 293 270q127 0 192 -127q21 -41 21 -82q0 -51 -31 -111q-174 -259 -332 -333q-55 -28 -55 -56q0 -8 4 -24
q18 -66 74 -66q82 0 219 101q80 59 129 100q49 49 78 49q11 0 28 -10q23 -21 23 -51q0 -29 -41 -97q-45 -66 -137 -135q-94 -69 -172 -80q-58 -4 -80 -4z" />
    <glyph glyph-name="f" unicode="f" horiz-adv-x="649" 
d="M246 -705q18 5 63 271q37 212 37 334q-9 122 -35 143q-8 -8 -12 -14q-7 -11 -16 -80q-54 -364 -54 -602q0 -52 17 -52zM260 -866l-51 2q-136 21 -152 151q-10 93 -10 144q0 208 64 540q6 29 6 54v18q-3 6 -6 25q-3 17 -56 38q-52 22 -55 56q0 14 2 28q3 22 53 46
q127 57 152 210q23 148 72 336q27 115 53 138q15 12 41 12q100 0 100 -80q0 -69 -72 -330q-12 -49 -12 -82q0 -49 31 -49q24 0 90 17q69 16 108 16q23 0 41 -2q25 -3 70 -45q37 -34 37 -66q0 -21 -18 -43q-20 -22 -54 -22q-23 0 -47 14q-41 25 -74 25q-47 0 -118 -33
q-29 -15 -60 -27q-10 -3 -10 -16q0 -17 6 -29q86 -169 86 -479q0 -99 -8 -211q-9 -133 -72 -250q-49 -97 -137 -106z" />
    <glyph glyph-name="g" unicode="g" horiz-adv-x="813" 
d="M272 -829q-129 0 -249 120q-43 46 -43 101q0 67 59 67q35 0 47 -41q40 -135 168 -135q47 0 74 33q23 25 51 80q108 206 147 418q52 273 52 485q0 23 -17 23q-3 0 -20 -7q-13 -7 -269 -301q-68 -77 -145 -77q-49 0 -109 34q-86 53 -86 140q0 37 19 86q137 375 411 667
q66 70 138 70q2 0 8.5 -0.5t19 -1.5t25.5 -2q43 -3 96 -86q19 -28 19 -45q0 -23 -21 -37q-24 -17 -39 -17q-19 0 -39 25q-20 23 -32 23q-15 0 -41 -29q-100 -112 -217 -299q-122 -192 -142 -330q46 30 148 137q94 101 178 213q87 117 108 168q16 31 54 31q90 0 120 -82
q23 -57 23 -225q0 -602 -215 -1012q-105 -194 -281 -194z" />
    <glyph glyph-name="h" unicode="h" horiz-adv-x="813" 
d="M709 -143h-15q-192 0 -192 413v279q0 31 -13 31q-8 0 -30 -31q-169 -270 -240 -584q-15 -81 -84 -84q-135 0 -135 105l2 28q14 85 82 510q11 71 21.5 139t14.5 95.5t5 29.5q32 293 86 598q18 115 90 115q119 -3 119 -102q0 -27 -6 -51q-20 -58 -68 -365
q-35 -231 -35 -299q0 -31 4 -35q5 0 50 53q91 119 192 119q166 0 166 -157q0 -16 -4 -54q-19 -142 -19 -266q0 -259 58 -387q2 -6 10 -18q9 -20 12 -37q0 -13 -8 -21q-21 -21 -63 -24z" />
    <glyph glyph-name="i" unicode="i" horiz-adv-x="291" 
d="M188 709l-28 2q-59 12 -62 75v41q0 71 66 238l10 29q15 38 62 41q22 0 40 -9q69 -29 72 -73q0 -44 -104 -303q-20 -41 -56 -41zM123 -117h-6q-104 0 -113 142q-4 94 -4 135q0 249 49 458q15 60 78 60q111 0 111 -88q0 -22 -5 -45q-51 -261 -63 -529q0 -22 6 -41
q4 -24 4 -38q0 -23 -2 -33q-4 -18 -55 -21z" />
    <glyph glyph-name="j" unicode="j" horiz-adv-x="567" 
d="M94 1071q-5 0 -65 4q-64 6 -64 119q0 70 49 82q52 10 160 10q176 0 176 -74q-21 -92 -151 -127q-46 -14 -105 -14zM-223 -721h-10q-175 0 -252 207q-7 32 -7 51q0 78 64 78q52 0 61 -70l9 -30q27 -117 82 -117q53 0 112 47q232 179 373 532q106 261 106 486q0 79 -12 149
q-27 146 -102 146q-51 0 -133 -94q-34 -37 -66 -37q-44 0 -72 37q-8 11 -8 30q0 85 82 127q133 68 229 68q92 0 185 -94q82 -83 82 -301q0 -298 -135 -629q-113 -280 -295 -432q-181 -151 -293 -154z" />
    <glyph glyph-name="k" unicode="k" horiz-adv-x="623" 
d="M94 -416h-8q-75 9 -84 146q-2 22 -2 73q0 265 113 809q28 146 43 217q21 112 28 160q16 92 68 92q129 0 129 -104q0 -37 -21 -107q-43 -160 -43 -213q0 -26 13 -26q22 0 73 59q98 107 193 107q38 0 59 -9q51 -17 54 -43q0 -27 -39 -55q-207 -154 -375 -491
q-16 -37 -16 -62q0 -59 75 -90q98 -39 234 -100q28 -14 33 -39q0 -41 -39 -41q-22 0 -60 12q-127 40 -237 86q-17 8 -35 8q-25 -4 -39 -20q-28 -36 -37 -172q-9 -142 -20 -166q-14 -28 -60 -31z" />
    <glyph glyph-name="l" unicode="l" horiz-adv-x="565" 
d="M229 -188q-155 0 -200 149q-29 90 -29 219q0 219 88 549l172 660q21 77 84 77q22 0 41 -8q49 -18 49 -67q0 -26 -8 -54q-240 -918 -240 -1245q0 -153 56 -153q71 0 301 215q2 0 2 2q19 19 47 22q12 0 29 -12q14 -11 14 -31q0 -23 -14 -45q-163 -278 -392 -278z" />
    <glyph glyph-name="m" unicode="m" horiz-adv-x="1196" 
d="M156 -164h-11q-23 0 -55 10q-87 31 -90 113v53q123 733 229 733q42 0 68 -26q24 -29 27 -66q0 -20 -7 -41q-59 -258 -59 -333q0 -41 12 -41q34 3 191 278q42 74 129 213q39 61 100 64q53 0 84 -31q24 -24 27 -66q0 -32 -2 -43q-31 -159 -31 -213q0 -22 4 -22q13 3 62 96
q13 25 81 141q99 158 181 158q10 0 26 -4q74 -27 74 -96q0 -67 -25 -154q-69 -232 -69 -391q0 -108 24 -154q13 -20 13 -34q0 -15 -23 -35q-16 -13 -37 -13q-94 0 -143 101q-23 49 -23 131q0 37 2 51q3 14 3 35q0 61 -13 61q-10 0 -39 -41q-41 -66 -65 -135
q-80 -209 -189 -209q-20 0 -43 6q-91 28 -100 103q0 112 27 258q-63 -63 -115 -191q-108 -257 -225 -266z" />
    <glyph glyph-name="n" unicode="n" horiz-adv-x="795" 
d="M168 -53q-28 0 -55 12q-110 46 -113 137q0 21 4 45q89 396 115 518q15 79 69 82q14 0 35 -6q83 -27 86 -88q0 -16 -10 -53q-43 -133 -43 -191q0 -22 8 -22q12 0 39 41q131 185 248 328q58 70 115 73q30 0 59 -16q67 -40 70 -127q0 -24 -7 -49q-94 -385 -94 -502
q0 -105 15 -119q4 -16 4 -22q0 -16 -17 -25q-15 -12 -34 -12q-44 0 -78 33q-79 65 -82 180q0 142 4 194q4 50 4 54q0 12 -4 12q-10 0 -225 -385q-52 -92 -113 -92z" />
    <glyph glyph-name="o" unicode="o" horiz-adv-x="557" 
d="M195 109q62 32 110 131q60 129 60 252q0 71 -29 131q-41 -36 -82 -138q-68 -175 -68 -311q0 -42 9 -65zM227 -66q-45 0 -106 33q-64 34 -101 125q-20 50 -20 115q0 102 51 264q53 167 119 285q41 71 111 71q115 0 131 -102q4 -19 28 -43q86 -82 86 -242q0 -34 -2 -86
q-3 -78 -65 -217q-61 -137 -162 -186q-39 -17 -70 -17z" />
    <glyph glyph-name="p" unicode="p" horiz-adv-x="807" 
d="M336 168q2 2 10 6q61 20 174 229q58 107 58 160q0 35 -21 35q-52 0 -182 -244q-74 -139 -74 -157q0 -11 2 -17q0 -9 33 -12zM61 -618q-119 0 -122 116l2 21q54 628 211 1235q18 69 73 69q15 0 33 -6q66 -18 66 -78q0 -29 -21 -94q-22 -68 -22 -129q0 -16 8 -16
q21 0 123 141q76 110 163 113q43 0 95 -25q72 -35 75 -121q0 -32 -6 -65q-36 -236 -198 -406q-64 -67 -148 -67q-40 0 -78 14q-16 8 -32 8l-21 -2q-19 -3 -96 -309q-35 -146 -35 -248l2 -72q0 -25 -6 -53q-6 -26 -66 -26z" />
    <glyph glyph-name="q" unicode="q" horiz-adv-x="698" 
d="M418 -848q-138 0 -162 148q-14 77 -14 137q0 213 82 534q16 69 16 92t-8 23q-22 -3 -82 -78q-80 -98 -156 -98q-69 0 -131 39q-65 39 -65 114q0 43 12 76q187 511 485 809q46 46 111 49l45 4q37 0 86 -36q34 -29 37 -70l-4 -27q-23 -120 -133 -172q-15 -8 -27 -8
q-18 0 -18 35q0 27 10 57q8 25 8 39q0 6 -4 6q-28 -3 -162 -215q-227 -359 -227 -463q93 62 313 361q72 96 154 96q39 0 67 -14q47 -26 47 -68q0 -38 -18 -82q-47 -109 -119 -377q-68 -250 -104 -495q-17 -111 -17 -184q0 -105 29 -168q8 -15 8 -31q0 -33 -59 -33z" />
    <glyph glyph-name="r" unicode="r" horiz-adv-x="512" 
d="M125 -61q-61 0 -102 38q-23 23 -23 62q46 417 90 690q9 57 62 57q124 0 124 -112q0 -18 -10 -56q-12 -42 -12 -77q0 -31 8 -31q4 0 14 16q47 100 168 152q40 18 78 18q36 0 58 -37q12 -18 12 -32q0 -25 -47 -47q-3 -2 -10.5 -6.5t-10.5 -6.5q-243 -187 -319 -532
q-23 -96 -80 -96z" />
    <glyph glyph-name="s" unicode="s" horiz-adv-x="496" 
d="M182 -57q-78 0 -78 51q0 27 76 100q103 100 103 152q0 9 -11 33q-10 23 -108 38q-164 26 -164 185q0 79 49 233q82 273 209 273q20 0 37 -7q84 -27 84 -61q0 -30 -31 -70q-153 -190 -153 -389q3 -69 104 -82q194 -21 197 -116v-58q0 -53 -99 -153q-112 -114 -215 -129z
" />
    <glyph glyph-name="t" unicode="t" horiz-adv-x="406" 
d="M281 -326q-20 0 -33 9q-89 39 -117 114q-49 131 -49 412q0 320 86 786q4 38 4 43q0 19 -16 19q-34 0 -76 -19q-58 -22 -150 -22q-38 0 -84 74q-18 30 -18 57q0 52 82 61l264 35q48 6 64 64l139 487q21 80 80 80q20 0 43 -8q80 -32 80 -90q0 -15 -11 -50
q-38 -100 -100 -296q-37 -112 -37 -130q3 -34 57 -34l113 2q38 0 90 -6q53 -8 119 -50q67 -42 70 -92q0 -19 -11 -43q-15 -30 -41 -30q-21 0 -55 16q-52 27 -174 27q-206 0 -221 -33q-6 -11 -14 -41q-95 -420 -95 -869q0 -163 19 -262q13 -72 57 -133q10 -17 10 -24
q0 -10 -10 -27q-21 -24 -65 -27z" />
    <glyph glyph-name="u" unicode="u" horiz-adv-x="803" 
d="M625 -115h-29q-57 0 -90 23q-54 40 -57 164q-5 40 -11 49q-74 -84 -90 -105q-59 -68 -137 -71l-45 -2q-48 0 -105 45q-61 45 -61 129q0 64 23 233q21 169 79 305q46 120 123 123q85 -15 88 -76q0 -18 -4 -38q-5 -17 -57 -228q-51 -200 -51 -272q0 -25 8 -25q42 3 199 258
q144 239 186 330q26 59 88 64q26 0 55 -13q63 -23 66 -80q0 -28 -8 -51q-138 -392 -138 -598q0 -45 11 -80q8 -24 8 -47v-16q-3 -15 -51 -21z" />
    <glyph glyph-name="v" unicode="v" horiz-adv-x="561" 
d="M188 -10l-41 2q-144 27 -147 174v104q0 146 39 338q12 61 14 94q6 54 27 95q18 37 74 37q108 0 108 -86l-2 -15q-49 -238 -49 -352q0 -31 8 -31q11 0 33 47q120 255 174 355q29 57 82 57q34 0 63 -16q43 -22 43 -58t-155 -350q-168 -334 -197 -362q-29 -33 -74 -33z" />
    <glyph glyph-name="w" unicode="w" horiz-adv-x="1014" 
d="M180 -61q-33 0 -76 16q-104 44 -104 160q0 22 2 32q50 284 137 543q28 79 80 82q28 0 47 -8q63 -20 66 -80q0 -27 -8 -51q-123 -366 -123 -438q0 -13 6 -13q27 0 289 484q45 82 96 82q18 0 41 -9q60 -26 63 -77q0 -40 -14 -76q-17 -45 -43 -209q-14 -84 -14 -152
q0 -52 10 -65q27 0 76 67q47 71 96 183q55 131 55 245q0 113 -59 187q-25 32 -25 55q0 17 15 31q16 16 32 16q24 0 54 -26q127 -112 133 -259l2 -92q0 -82 -64 -231q-144 -344 -291 -344q-35 0 -59 8q-153 47 -156 168q0 31 2 37v12l-2 2q-3 0 -149 -205q-51 -72 -115 -75z
" />
    <glyph glyph-name="x" unicode="x" horiz-adv-x="616" 
d="M115 -121h-4q-111 0 -111 90q0 115 115 375q61 137 61 221l-2 164q0 123 16 270q8 50 23 78q14 27 63 27q118 0 121 -113q-12 -171 -12 -235q0 -39 4 -39q10 0 35 28q120 155 287 236q25 14 55 14q23 0 37 -26q6 -12 6 -21q0 -14 -45 -53q-207 -173 -344 -399
q-37 -58 -37 -129q0 -65 39 -168q41 -108 162 -160q34 -15 34 -47q0 -45 -43 -51q-36 -4 -55 -4q-151 0 -248 151q-27 47 -43 47q-25 0 -47 -119q-21 -137 -67 -137z" />
    <glyph glyph-name="y" unicode="y" horiz-adv-x="707" 
d="M573 -563q-24 0 -49 10q-89 38 -123 111t-34 231q0 68 10 231q0 91 -4 91q-5 0 -23 -27q-72 -90 -162 -90q-25 0 -57 10q-131 52 -131 189q0 528 94 534l25 -2q104 -3 104 -115q-8 -149 -8 -258q0 -108 16 -108q28 3 119 186q57 111 139 260q37 64 99 64q28 0 49 -9
q70 -27 70 -96q0 -19 -5 -37q-31 -99 -77 -323q-62 -301 -62 -506q0 -172 62 -246q18 -20 22 -41q0 -14 -14 -28q-28 -28 -60 -31z" />
    <glyph glyph-name="z" unicode="z" horiz-adv-x="690" 
d="M41 -172q-107 0 -107 70q0 33 56 86q65 57 198 202q130 147 222 285q69 103 69 166q0 59 -61 59q-71 0 -236 -65q-29 -13 -55 -13q-23 0 -66 19q-37 14 -53 55q-4 12 -4 19q0 27 45 43q207 75 365 75q166 0 225 -102q23 -44 23 -90q0 -126 -177 -354l-71 -90
q-19 -25 -19 -41q0 -19 15 -19q6 0 26 4q47 15 88 15q92 0 170 -66q54 -48 54 -109q0 -50 -25 -81q-27 -31 -64 -31q-62 0 -77 37q-11 28 -11 57q0 35 -2 47q-3 16 -28 19q-18 0 -41 -9q-160 -51 -324 -145q-76 -43 -135 -43z" />
    <glyph glyph-name="braceleft" unicode="{" horiz-adv-x="604" 
d="M377 -633h-25q-183 0 -260 182q-43 132 -43 246q0 129 43 307q14 67 14 91q-3 5 -6 22q-6 14 -45 27q-48 6 -51 55q0 48 31 129q44 117 108 317q49 151 111 320q173 470 313 479q49 0 86 -33q57 -34 60 -84q-9 -86 -86 -92q-43 -8 -66 -39q-24 -34 -41 -84
q-56 -111 -184 -467q-100 -274 -100 -370q0 -27 12 -33q83 -27 86 -80q0 -57 -19 -110q-63 -220 -63 -381q0 -33 2 -48q15 -247 121 -247q27 0 76 22q21 15 43 15q32 0 43 -48q0 -25 -39 -53q-57 -40 -121 -43z" />
    <glyph glyph-name="bar" unicode="|" horiz-adv-x="279" 
d="M80 -213h-6q-50 0 -86 61q-39 56 -39 144q47 590 178 1161q15 76 18 109q3 79 52 84q4 0 9.5 -1t12.5 -2t12 -2q99 -21 105 -106q0 -27 -6 -57q-205 -801 -205 -1186l4 -109q0 -93 -49 -96z" />
    <glyph glyph-name="braceright" unicode="}" horiz-adv-x="743" 
d="M147 -672q-88 0 -88 45q0 22 33 37q95 44 152 131q41 61 41 129q0 26 -6 47q-24 70 -27 123q0 82 24 140q60 142 60 184q-6 77 -37 162q-32 82 -35 141q0 65 21 111q37 88 88 192q60 123 100 219q43 95 80 248q6 27 6 59q0 26 -22 50q-24 20 -52 20q-28 -3 -61 -18
q-67 -36 -133 -39q-77 0 -98 69q0 47 83 74q46 15 99 18q65 0 153 -10q78 -12 156 -96q51 -54 51 -143q0 -111 -98 -312q-172 -348 -172 -503q0 -104 86 -136q50 -17 53 -51q0 -22 -22 -47q-123 -132 -123 -311q0 -67 24 -199q0 -83 -49 -160q-51 -79 -145 -131
q-69 -40 -142 -43z" />
    <glyph glyph-name="asciitilde" unicode="~" horiz-adv-x="616" 
d="M373 975q-105 0 -182 53q-20 15 -47 15q-33 0 -56 -28q-14 -19 -31 -21h-7q-27 0 -43 18.5t-19 33t-3 24.5v4q0 25 20 57q18 29 69 61q32 22 50 25q11 2 29 2q12 0 27 -6.5t24 -12.5l9 -7q27 -21 86 -52q41 -18 73 -18q64 0 98 85q25 25 45 25q25 0 45 -40q13 -28 13 -61
q0 -3 -0.5 -9t-0.5 -10q-1 -19 -27 -55q-16 -21 -21 -25q-70 -58 -151 -58z" />
    <glyph glyph-name="exclamdown" unicode="&#xa1;" horiz-adv-x="453" 
d="M305 719h-12q-56 0 -60 57q0 58 76 293q20 56 66 59q34 0 55 -8q71 -21 74 -76q0 -49 -111 -268q-28 -54 -88 -57zM127 -711q-127 0 -127 265q0 266 164 913q21 88 92 94q118 0 127 -88q0 -42 -47 -219q-127 -473 -127 -733q0 -67 6 -131v-17q0 -72 -68 -82z" />
    <glyph glyph-name="cent" unicode="&#xa2;" horiz-adv-x="827" 
d="M158 -109q70 0 73 70q0 305 56 582q0 10 -4 10q-21 0 -101 -180q-106 -233 -106 -371q0 -3 0.5 -9.5t1.5 -20t2 -25.5q3 -44 67 -53zM416 -453q-19 0 -37 9q-111 39 -129 161q-9 78 -84 78l-6 -2q-112 6 -170 88q-51 63 -51 154l2 43q62 458 317 692q68 62 94 129
q26 61 39 145q9 78 55 78q53 0 93 -43q14 -14 14 -41q0 -13 -6 -34q-15 -38 -15 -64q0 -14 9 -37q11 -26 63 -51q90 -46 90 -129q0 -63 -61 -109q-21 -14 -31 -14q-18 0 -18 25q0 27 8 47q10 30 10 55v21q-3 15 -43 30q-20 4 -27 4q-49 0 -67 -106q-80 -331 -80 -598
q0 -53 23 -53q26 0 75 45q59 56 170 106q25 10 33 10q21 -3 21 -18q0 -13 -23 -43q-106 -135 -227 -225q-82 -63 -82 -144q0 -62 49 -129q25 -34 25 -53q0 -27 -33 -27z" />
    <glyph glyph-name="sterling" unicode="&#xa3;" horiz-adv-x="946" 
d="M-49 -477q-50 0 -86 49q-17 22 -17 33q0 19 35 39q20 10 29 22q54 70 84 164q26 82 45 176q5 26 20 88q25 103 42.5 191.5t22.5 124.5t5 43q0 28 -25 28q-15 0 -45 -10q-59 -22 -75 -22q-18 0 -33 6q-40 14 -60 40.5t-36 73.5l-2 6q-2 8 -2 12q0 16 16.5 25t42.5 9
q181 0 270 114q63 82 117 240q74 218 178 362q48 66 109 66q21 0 61 -12q43 -14 94 -99q11 -18 11 -37q0 -32 -23 -49q-14 -10 -29 -10q-20 0 -36 33q-14 24 -27 24q-17 0 -39 -39q-105 -185 -197 -413q-10 -30 -10 -33q0 -31 41 -31q23 0 66 8q52 11 114 11q2 0 68 -4
q46 -3 113 -70l6 -6q26 -27 26 -47q0 -12 -4 -23q-8 -20 -26 -20q-20 0 -33 8q-33 18 -131 18q-54 0 -117 -12q-79 -15 -160 -57q-49 -27 -61 -82q-13 -58 -14 -119q-2 -46 -5 -68q-8 -75 -41.5 -210t-42.5 -183l-4 -27q0 -22 33 -22q37 0 98 16q128 35 256 35
q145 0 277 -96q43 -31 43 -61q0 -23 -16 -37q-5 -4 -21 -4q-26 0 -72 14q-131 41 -247 41q-288 0 -521 -191q-32 -26 -65 -26z" />
    <glyph glyph-name="yen" unicode="&#xa5;" horiz-adv-x="1016" 
d="M469 -623q-34 0 -76 37q-65 59 -65 166q0 26 4 72q0 46 -23 49q-12 0 -213 -90q-26 -15 -50 -15q-47 0 -84 70q-10 23 -10 35q0 27 58 51q17 9 31 16l25 12.5t25 11.5t21.5 9.5t24.5 9.5t23.5 8.5t29 9.5t30.5 10t39 12.5t44 13.5q61 21 64 61q0 10 -5 27q-9 24 -24 24
q-192 -66 -216 -66q-67 3 -89 82q-4 20 -4 27q0 50 80 59q132 14 165.5 24t73.5 51q87 87 144 333q0 7 -3 11q-1 1 -1.5 2.5t-1 4.5t-1.5 5t-2 5.5t-2 4.5q-2 -2 -10 -6q-18 -11 -63 -90q-28 -48 -74 -113q-57 -78 -137 -78q-31 0 -66 15q-112 46 -133 176q-6 40 -6 86
q0 208 117 494q55 137 100 217q21 39 51 39q21 0 47 -11q47 -24 47 -65q-3 -26 -10 -41q-56 -115 -137 -393q-59 -203 -62 -295q0 -51 17 -68q68 0 268 305q196 300 244 398q33 67 90 67q20 0 43 -10q63 -28 63 -88q0 -30 -49 -146q-139 -325 -223 -639q-6 -24 -6 -45
q0 -34 35 -39q31 0 61 9q45 10 84 10l31 -2q36 -26 36 -60q0 -49 -98 -81l-161 -33q-42 -9 -45 -58q0 -49 26 -49q17 0 29 4q24 10 89.5 16.5t114.5 6.5q28 0 31 -2q29 -15 29 -47q0 -31 -27 -57.5t-63 -26.5h-6q-258 0 -258 -180q0 -86 14 -152q4 -28 4 -39q0 -72 -49 -72z
" />
    <glyph glyph-name="section" unicode="&#xa7;" horiz-adv-x="868" 
d="M240 80q66 0 342 219q26 20 26 43q0 11 -26 20q-32 9 -314 68q-26 -9 -84 -65q-114 -116 -114 -172q0 -22 28 -48q82 -65 142 -65zM-135 -342h-17q-32 9 -32 76q0 25 14 28q25 5 41 5q31 0 37 2q139 38 276 114q31 16 31 35q0 17 -31 35q-264 156 -264 287q0 18 12 73
q11 58 160 183q58 45 58 114l-3 23q0 105 115 262q118 162 262 266q103 74 178 74q36 0 68 -16q61 -34 61 -78q0 -45 -43 -45h-28q-155 -51 -316 -236q-145 -177 -145 -250q0 -43 47 -61q43 -19 137 -29q105 -9 201 -47q95 -40 117 -156v-14q0 -101 -252 -233
q-143 -77 -143 -113q0 -5 4 -35q2 -14 2 -45q0 -157 -295 -190q-172 -29 -252 -29z" />
    <glyph glyph-name="dieresis" unicode="&#xa8;" horiz-adv-x="537" 
d="M114 1050l-13 1q-81 23 -86 70v10q0 53 39 121l21 41q14 30 40 34h8q24 0 47 -13q46 -25 49 -68v-5q0 -28 -25 -98q-37 -90 -80 -93zM386 1094h-6q-72 0 -72 84q19 103 35 139q14 33 70 39q86 0 86 -92q0 -45 -29 -105q-26 -56 -84 -65z" />
    <glyph glyph-name="copyright" unicode="&#xa9;" horiz-adv-x="1337" 
d="M666 12l-35 2q-174 0 -244 101q-41 56 -41 125q0 59 27 120q120 290 393 441q48 26 92 26q69 0 125 -71q31 -43 31 -84q0 -54 -53 -127q-29 -35 -54 -35q-13 0 -28 12q-17 9 -17 31q0 18 10 45q17 42 17 59q0 21 -17 21t-61 -29q-202 -149 -285 -381q-12 -36 -12 -61
q0 -66 74 -66q47 0 174 35q84 23 106 23q45 0 45 -33q0 -30 -45 -72q-70 -70 -202 -82zM584 -225q219 0 366 194q191 256 191 527q0 177 -74 331q-77 155 -203 220q-51 26 -104 26q-72 0 -137 -53q-382 -299 -449 -709q-6 -39 -6 -80q0 -123 68 -241q64 -122 213 -187
q67 -28 135 -28zM688 -344h-26q-207 0 -390 127q-185 128 -249 348q-21 66 -21 148q0 164 98 358q190 371 502 528q116 58 215 58q98 0 217 -84q119 -88 183 -324q43 -163 43 -330q0 -87 -21 -262q-21 -174 -160 -366q-137 -192 -391 -201z" />
    <glyph glyph-name="ordfeminine" unicode="&#xaa;" horiz-adv-x="604" 
d="M440 893q-12 0 -18 2q-107 30 -107 145q0 41 -10 41q-22 -26 -65 -75q-38 -44 -72 -78q-32 -35 -68 -35q-29 0 -53 12q-55 31 -55 86q0 11 4 31q33 154 162 307q52 64 110 64q32 0 64 -21q28 -22 28 -35q0 -16 -6 -22q-14 -27 -32 -27q-20 0 -29 6q-4 2 -7.5 3.5t-7.5 3
t-6 2.5q-7 0 -20 -19q-57 -69 -117 -213q-8 -16 -8 -27q0 -6 4 -6q21 0 117 111q120 138 147 145q22 4 27 4q3 0 8.5 -1t7.5 -1q39 -17 39 -71q0 -21 -6 -45q-25 -94 -25 -158q0 -47 23 -96q6 -9 6 -17q0 -16 -35 -16z" />
    <glyph glyph-name="guillemotleft" unicode="&#xab;" horiz-adv-x="885" 
d="M743 199q-19 0 -53 24q-3 2 -8.5 6t-10.5 6.5l-9 4.5q-51 20 -127 67q-81 45 -125 109q-19 23 -19 49q0 39 39 72l242 215q4 3 61 32q72 -9 96 -61q7 -11 7 -23q0 -28 -41 -63q-31 -24 -60 -51q-40 -41 -92 -76q-68 -47 -68 -86q0 -42 87 -76q120 -47 120 -96
q0 -14 -6 -29q-15 -24 -33 -24zM440 86q-39 0 -114 31q-258 99 -291 209q-10 33 -10 61q0 147 290 410q67 61 107 61q24 0 59 -22q49 -34 49 -62q0 -26 -41 -59q-319 -255 -319 -348q0 -17 6 -35q21 -55 70 -76q67 -31 110 -35q68 -6 105 -20q39 -18 53 -56v-14
q0 -45 -74 -45z" />
    <glyph glyph-name="registered" unicode="&#xae;" horiz-adv-x="1462" 
d="M498 393q35 0 235 203q94 93 94 137q0 39 -49 39q-54 -3 -106 -27q-57 -24 -72 -57q-113 -241 -113 -282q0 -13 11 -13zM449 -150q39 0 88 19q229 86 403 237q-26 10 -68 52q-107 110 -278 110q-161 0 -188 -112q-20 -68 -62 -68q-53 0 -53 76q0 127 88 366q24 68 24 127
l-2 56q0 51 33 75q93 75 301 84q62 0 117 -22q125 -52 125 -133q0 -56 -66 -131q-6 -7 -39 -47q-50 -69 -133 -125q-28 -20 -28 -35q0 -19 39 -33q140 -53 229 -164q12 -16 16 -22q105 107 176 256q52 105 52 215q0 53 -21 147q-20 99 -145 205q-104 84 -242 84h-80
q-81 -3 -205 -96q-372 -276 -372 -672q0 -52 18 -166q15 -114 119 -215q71 -68 154 -68zM422 -285q-188 0 -285 127q-108 148 -108 367q0 4 0.5 21t1.5 52.5t2 73.5q3 133 112 375q106 238 297 385q140 105 303 105q63 0 132 -21q212 -65 354 -244q139 -178 139 -405v-121
q-3 -118 -223 -346q-294 -303 -635 -360q-40 -9 -90 -9z" />
    <glyph glyph-name="macron" unicode="&#xaf;" horiz-adv-x="498" 
d="M483 1151q0 -3 -0.5 -8.5t-4.5 -20t-9.5 -25.5t-17 -20t-26.5 -9q-96 16 -165 16q-16 0 -44 -2q-54 -3 -114 -18q-21 -9 -39 -9t-23 10q-15 21 -35 81q-2 8 -2 18q0 60 46 73q77 20 141 20h56q67 0 121 -8q5 0 12.5 -1t27.5 -7t35.5 -15t28 -26.5t12.5 -40.5v-8z" />
    <glyph glyph-name="degree" unicode="&#xb0;" horiz-adv-x="444" 
d="M168 909q7 0 27 31q34 60 47 135q0 25 -9 25q-33 -71 -57 -158q-8 -24 -8 -33zM152 657q-66 0 -125 56q-40 36 -43 82l2 28q39 378 166 398l43 2l59 -2q135 -11 135 -174q0 -207 -147 -355q-40 -35 -90 -35z" />
    <glyph glyph-name="plusminus" unicode="&#xb1;" horiz-adv-x="1126" 
d="M625 -111q-30 0 -66 31q-75 72 -78 158l-2 43q0 72 15 131q8 32 8 61q0 56 -37 56q-29 0 -82 -27q-106 -53 -182 -53q-35 0 -60 24q-37 39 -37 88q0 41 64 54q85 17 205 53q65 21 129 39q50 12 65 82l51 221q19 76 72 76q5 0 25 -4q86 -23 86 -101q0 -34 -21 -73
q-37 -83 -37 -115q0 -53 91 -53q47 0 120 6q80 0 80 -92q0 -91 -69 -91l-15 3q-124 28 -178 28q-33 0 -59 -20q-29 -23 -41 -199q-4 -66 -4 -100q0 -97 14 -138q6 -21 6 -43q-3 -22 -29 -36q-15 -9 -34 -9zM230 -376q-59 0 -98 58q-25 32 -25 55q0 36 25 45q20 4 53 4
q296 51 514 51q166 0 328 -49q67 -21 67 -94q0 -53 -34 -53q-15 0 -21 2q-156 39 -340 39q-179 0 -428 -51q-20 -7 -41 -7z" />
    <glyph glyph-name="twosuperior" unicode="&#xb2;" horiz-adv-x="510" 
d="M22 414q-18 0 -39 16q-46 32 -46 62q0 24 39 57q121 107 216 213q100 111 170 250q11 22 11 36q0 18 -26 18q-23 0 -61 -15q-30 -13 -81 -42q-44 -28 -54 -40q-13 -14 -27 -14t-31 12q-35 34 -35 64q0 31 51 67q48 35 161 49q42 3 43 3q79 0 125 -39q55 -48 55 -103
q0 -43 -30 -88q-73 -120 -175 -228q-24 -27 -24 -36q0 -14 43 -14q102 0 168 -66q13 -13 13 -24q0 -26 -29 -26q-55 20 -102 20q-81 0 -200 -70q-72 -40 -85 -46q-32 -16 -50 -16z" />
    <glyph glyph-name="threesuperior" unicode="&#xb3;" horiz-adv-x="561" 
d="M46 268q-40 3 -67 18q-29 15 -29 47q0 24 24 24l19 -1q14 0 23 4q283 139 387 400q6 15 6 27q0 28 -35 28l-20 -5q-98 -20 -179 -73q-29 -17 -49 -17q-40 1 -74 55q-12 19 -12 30q0 13 49 50q111 82 201 190q20 25 20 38t-22 13q-32 0 -129 -39q-22 -9 -40 -9
q-39 3 -63 56q0 2 -1.5 5.5t-1.5 6.5q3 22 42 38q81 35 162 35q127 0 170 -85q10 -18 10 -41q-1 -38 -56 -96q-25 -26 -25 -38q0 -13 33 -24q140 -50 140 -155q0 -47 -34 -109q-131 -236 -376 -358q-30 -15 -73 -15z" />
    <glyph glyph-name="acute" unicode="&#xb4;" horiz-adv-x="473" 
d="M80 932q-25 0 -47 16q-23 15 -23 37q0 51 82 170q132 184 238 184q45 0 67 -34q11 -24 11 -33q0 -14 -9 -29q-10 -20 -260 -282q-27 -29 -59 -29z" />
    <glyph glyph-name="mu" unicode="&#xb5;" horiz-adv-x="803" 
d="M78 -678q-96 0 -120 148q-13 79 -13 138q-4 16 -4 54q0 118 54 470q53 349 83 450q38 127 60 158q33 49 82 49q26 0 59 -12q20 -8 29 -13q47 -24 47 -67q0 -41 -18 -83q-47 -108 -126 -424l-3 -24q-1 -3 -1 -9q0 -11 6 -11q41 2 202 256q137 214 192 327q30 60 90 62
q27 0 55 -12q62 -25 64 -82q0 -27 -9 -51q-145 -396 -146 -598v-10q0 -43 8 -70q5 -22 5 -47v-17q-2 -15 -50 -18h-28q-58 0 -90 23q-42 32 -42 107q0 20 3 43q9 66 9 93q0 17 -4 19h-3q-7 0 -14 -7q-102 -138 -107 -143q-59 -68 -136 -70l-36 -2q-23 0 -32 -40
q-47 -232 -47 -355q0 -107 29 -168q8 -18 8 -31q0 -33 -56 -33z" />
    <glyph glyph-name="paragraph" unicode="&#xb6;" horiz-adv-x="1578" 
d="M1436 1307q-19 -4 -36 -4q-10 0 -14 1q-17 5 -34 7h-7q-16 0 -44 -7q-30 -8 -37 -29q-11 -36 -28 -92.5t-22 -74.5q-15 -46 -52 -171q-32 -108 -60 -240q-32 -143 -50 -240q-20 -109 -24 -201q-1 -16 -1 -50q0 -68 6 -142q5 -38 12 -66q31 -121 115 -217q2 -3 6 -7
q3 -8 3 -14q0 -19 -26 -40t-64 -29q-30 -6 -43 -6h-6q-84 21 -128 78q-43 55 -60 133q-17 72 -28 157l-3 24q-4 32 -5 50q-2 38 -2 53v24q0 64 15 156q5 22 9 52q10 54 15 83q6 37 17 74l4 18q2 8 3 11q1 1 1 3t1 3v3q12 37 18 77q15 63 31 133q13 65 32 134q17 62 56 172
q9 29 9 51q0 27 -15 42q-15 16 -38 16q-13 0 -43 -11q-29 -10 -50 -31q-20 -20 -32 -71q-54 -203 -100 -438q-44 -226 -58 -437v-24q0 -118 18 -222q10 -63 10 -103q-2 -57 -16 -79q-16 -21 -37 -29q-10 -3 -23 -3q-10 0 -33 5q-24 5 -62 32q-41 29 -50 94q-5 32 -5 83
q0 39 2 60q3 56 3 112q0 33 2 91q9 136 9 208q0 33 -1 45q-4 55 -43 55q-8 0 -12 -1l-37 -1q-36 0 -111 13q-77 13 -138 127q-40 77 -40 164q0 44 8 80q24 87 74 153q49 63 96 99t59 43q94 58 239 105q142 46 272 78l14 4q102 29 212 47q76 12 181 12q33 0 126 -3
q94 -5 107 -69q5 -27 5 -42q0 -31 -20 -48q-18 -15 -52 -23z" />
    <glyph glyph-name="periodcentered" unicode="&#xb7;" horiz-adv-x="274" 
d="M113 401q-80 0 -80 91q0 37 24 90q23 51 76 51q94 0 94 -84q-15 -134 -114 -148z" />
    <glyph glyph-name="cedilla" unicode="&#xb8;" horiz-adv-x="602" 
d="M287 -500q-53 0 -88 25q-33 20 -39 43q-2 8 -2 12q0 20 19.5 25.5t46 6t35.5 6.5q37 28 58 66q18 39 18 69q0 37 -33 43q-43 5 -70 15.5t-38.5 26t-14.5 28.5t-3 34v9q1 25 11 49q18 41 29 55q11 21 36 21q36 -1 51 -7q47 -20 47 -43q0 -14 -10 -31q-10 -20 -10 -35
q0 -25 47 -43q137 -46 137 -156q0 -80 -70 -149q-70 -70 -157 -70z" />
    <glyph glyph-name="onesuperior" unicode="&#xb9;" horiz-adv-x="280" 
d="M147 438h-7q-14 0 -37 12q-70 40 -76 116q14 205 45 353q24 105 42 208q6 29 39 34q83 -9 89 -56q0 -26 -6 -53q-64 -241 -80 -473q1 -47 12 -67q10 -24 11 -41q0 -28 -32 -33z" />
    <glyph glyph-name="ordmasculine" unicode="&#xba;" horiz-adv-x="469" 
d="M188 963q42 22 72 79q39 72 39 150q0 46 -18 80q-28 -22 -54 -82q-45 -108 -45 -189q0 -23 6 -38zM209 858q-32 0 -70 21q-41 18 -65 73q-15 29 -15 70q0 53 35 158q38 112 78 172q28 43 72 43q76 0 88 -62q0 -11 18 -26q58 -52 58 -146v-7q-1 -6 -1.5 -18t-0.5 -26
q-5 -52 -44 -129q-38 -80 -106 -113q-27 -10 -47 -10z" />
    <glyph glyph-name="guillemotright" unicode="&#xbb;" horiz-adv-x="995" 
d="M135 127q-43 0 -86 61q-20 27 -20 45q0 24 43 46q17 10 43 32q126 101 213 203q28 39 28 64q0 10 -8 26q-11 29 -133 58q-102 16 -152 69q-38 34 -38 60q0 11 10 28t22 17q14 0 47 -15q189 -45 332 -151q96 -70 96 -164q0 -68 -59 -115q-43 -39 -133 -117
q-86 -69 -135 -114q-39 -33 -70 -33zM664 180q-14 0 -27 8q-53 26 -53 72q0 28 145 268q27 36 27 64q0 32 -54 57q-62 26 -104 60q-35 24 -35 57q0 47 41 47q29 0 94 -33t146 -108q98 -93 98 -154q0 -32 -27 -76q-25 -45 -77 -108q-57 -68 -93 -101q-48 -45 -59 -47
q-15 -6 -22 -6z" />
    <glyph glyph-name="onequarter" unicode="&#xbc;" horiz-adv-x="1274" 
d="M269 438h-7q-14 0 -37 12q-70 40 -76 116q14 205 45 353q24 105 42 208q6 29 39 34q83 -9 89 -56q0 -26 -6 -53q-64 -241 -80 -473q1 -47 12 -67q10 -24 11 -41q0 -28 -32 -33zM104 -301q-26 0 -60 27q-17 19 -17 56q0 145 256 576q296 498 535 814q11 11 21 26
q20 26 44 26q21 0 61 -22q30 -18 30 -39q0 -20 -19 -46q-286 -396 -429 -605q-234 -338 -373 -731q-2 -10 -2 -22q0 -20 -5 -37q-8 -23 -42 -23zM1078 0q-22 1 -42 26q-46 57 -46 122q0 48 29 150q10 31 10 45q0 15 -8 15q-19 0 -78 -44q-62 -46 -135 -75q-30 -12 -60 -12
q-40 1 -69 32q-30 28 -30 62q3 31 25 57q35 47 315 408q15 21 39 21q24 -1 44 -17q25 -20 25 -46q-3 -23 -18 -42q-223 -275 -223 -292q0 -6 17 -6q29 0 238 125q15 9 30 9q28 -3 65 -36q17 -15 17 -33q-3 -25 -13 -43q-14 -26 -46 -108q-47 -119 -55 -203q0 -34 6 -52
q6 -19 6 -34q0 -29 -43 -29z" />
    <glyph glyph-name="onehalf" unicode="&#xbd;" horiz-adv-x="1218" 
d="M269 438h-7q-14 0 -37 12q-70 40 -76 116q14 205 45 353q24 105 42 208q6 29 39 34q83 -9 89 -56q0 -26 -6 -53q-64 -241 -80 -473q1 -47 12 -67q10 -24 11 -41q0 -28 -32 -33zM104 -301q-26 0 -60 27q-17 19 -17 56q0 145 256 576q296 498 535 814q11 11 21 26
q20 26 44 26q21 0 61 -22q30 -18 30 -39q0 -20 -19 -46q-286 -396 -429 -605q-234 -338 -373 -731q-2 -10 -2 -22q0 -20 -5 -37q-8 -23 -42 -23zM730 0q-18 0 -39 16q-46 32 -46 61q0 25 39 58q127 112 216 213q100 111 170 250q11 22 11 36q0 18 -26 18q-23 0 -61 -15
q-30 -13 -81 -42q-44 -28 -54 -40q-13 -15 -27 -15q-13 0 -31 13q-35 34 -35 63q0 30 51 68q48 35 161 49q28 2 43 2q80 0 125 -38q55 -48 55 -103q0 -43 -30 -88q-73 -120 -175 -228q-24 -27 -24 -36q0 -14 43 -14q101 0 168 -66q13 -15 13 -24q0 -26 -29 -26
q-55 20 -102 20q-81 0 -200 -70q-43 -25 -85 -46q-32 -16 -50 -16z" />
    <glyph glyph-name="threequarters" unicode="&#xbe;" horiz-adv-x="1498" 
d="M111 268q-40 3 -67 18q-29 15 -29 47q0 24 24 24l19 -1q14 0 23 4q283 139 387 400q6 15 6 27q0 28 -35 28l-20 -5q-98 -20 -179 -73q-29 -17 -49 -17q-40 1 -74 55q-12 19 -12 30q0 13 49 50q111 82 201 190q20 25 20 38t-22 13q-31 0 -129 -39q-22 -9 -40 -9
q-39 3 -63 56q0 2 -1.5 5.5t-1.5 6.5q3 22 42 38q81 35 162 35q128 0 170 -85q10 -18 10 -41q-1 -38 -56 -96q-25 -26 -25 -38q0 -13 33 -24q140 -50 140 -155q0 -47 -34 -109q-131 -236 -376 -358q-30 -15 -73 -15zM328 -301q-26 0 -60 27q-17 19 -17 56q0 145 256 576
q296 498 535 814q11 11 21 26q20 26 44 26q21 0 61 -22q30 -18 30 -39q0 -20 -19 -46q-286 -396 -429 -605q-234 -338 -373 -731q-2 -10 -2 -22q0 -20 -5 -37q-8 -23 -42 -23zM1302 0q-22 1 -42 26q-46 57 -46 122q0 48 29 150q10 31 10 45q0 15 -8 15q-19 0 -78 -44
q-62 -46 -135 -75q-30 -12 -60 -12q-40 1 -69 32q-30 28 -30 62q3 31 25 57q35 47 315 408q15 21 39 21q24 -1 44 -17q25 -20 25 -46q-3 -23 -18 -42q-223 -275 -223 -292q0 -6 17 -6q29 0 238 125q15 9 30 9q28 -3 65 -36q17 -15 17 -33q-3 -25 -13 -43q-14 -26 -46 -108
q-47 -119 -55 -203q0 -34 6 -52q6 -19 6 -34q0 -29 -43 -29z" />
    <glyph glyph-name="questiondown" unicode="&#xbf;" horiz-adv-x="829" 
d="M598 735q50 0 115 -30q62 -30 71 -105q0 -68 -57 -143q-229 -313 -362 -510q-126 -187 -218 -391q-51 -117 -51 -187q0 -34 13 -57q26 -51 88 -51q20 0 82 16q63 17 163 121q34 32 56 90q34 87 67 90q17 0 23 -2q90 -41 90 -113q0 -10 -4 -30q-30 -100 -121 -181
q-98 -87 -178 -96q-41 -6 -80 -6q-100 0 -172 29q-217 82 -217 258q0 225 497 899l146 194q41 62 41 84q-3 23 -35 37q-35 12 -35 41q0 43 78 43zM526 1184q65 0 68 -107q2 -16 2 -53q0 -56 -14 -92q-16 -40 -90 -49q-34 0 -66 14q-33 14 -33 78q0 171 119 205z" />
    <glyph glyph-name="Agrave" unicode="&#xc0;" horiz-adv-x="745" 
d="M262 393q22 0 49 6q73 16 82 72l10 66q37 188 37 270q0 35 -8 35q-17 0 -137 -240q-74 -154 -74 -192q0 -17 41 -17zM625 -385q-47 0 -86 41q-68 74 -97 188q-26 100 -45 217q-12 81 -24 127q-17 48 -37 48q-97 0 -158 -21q-60 -20 -82 -109q-7 -32 -10 -75
q-21 -167 -47 -185q-15 -12 -37 -12q-32 0 -68 27q-69 44 -69 116q0 32 16 74q15 41 15 62q0 22 -23 22q-19 0 -78 -24q-55 -27 -76 -27q-32 0 -59 37q-31 34 -31 80q0 45 54 73q53 26 135 41q145 32 192 76l430 899q56 109 164 109q40 0 82 -13q72 -25 72 -73
q0 -47 -21 -107q-159 -590 -159 -954q0 -378 96 -541q20 -31 20 -47t-22 -33q-24 -16 -47 -16zM814 1370q-32 0 -59 29q-248 260 -261 282q-8 16 -8 29q0 11 10 33q23 34 68 34q106 0 238 -184q82 -119 82 -170q0 -21 -23 -37q-22 -16 -47 -16z" />
    <glyph glyph-name="Aacute" unicode="&#xc1;" horiz-adv-x="745" 
d="M262 393q22 0 49 6q73 16 82 72l10 66q37 188 37 270q0 35 -8 35q-17 0 -137 -240q-74 -154 -74 -192q0 -17 41 -17zM625 -385q-47 0 -86 41q-68 74 -97 188q-26 100 -45 217q-12 81 -24 127q-17 48 -37 48q-97 0 -158 -21q-60 -20 -82 -109q-7 -32 -10 -75
q-21 -167 -47 -185q-15 -12 -37 -12q-32 0 -68 27q-69 44 -69 116q0 32 16 74q15 41 15 62q0 22 -23 22q-19 0 -78 -24q-55 -27 -76 -27q-32 0 -59 37q-31 34 -31 80q0 45 54 73q53 26 135 41q145 32 192 76l430 899q56 109 164 109q40 0 82 -13q72 -25 72 -73
q0 -47 -21 -107q-159 -590 -159 -954q0 -378 96 -541q20 -31 20 -47t-22 -33q-24 -16 -47 -16zM488 1408q-25 0 -47 16q-23 15 -23 37q0 51 82 170q132 184 238 184q45 0 67 -34q11 -24 11 -33q0 -14 -9 -29q-10 -20 -260 -282q-27 -29 -59 -29z" />
    <glyph glyph-name="Acircumflex" unicode="&#xc2;" horiz-adv-x="745" 
d="M262 393q22 0 49 6q73 16 82 72l10 66q37 188 37 270q0 35 -8 35q-17 0 -137 -240q-74 -154 -74 -192q0 -17 41 -17zM625 -385q-47 0 -86 41q-68 74 -97 188q-26 100 -45 217q-12 81 -24 127q-17 48 -37 48q-97 0 -158 -21q-60 -20 -82 -109q-7 -32 -10 -75
q-21 -167 -47 -185q-15 -12 -37 -12q-32 0 -68 27q-69 44 -69 116q0 32 16 74q15 41 15 62q0 22 -23 22q-19 0 -78 -24q-55 -27 -76 -27q-32 0 -59 37q-31 34 -31 80q0 45 54 73q53 26 135 41q145 32 192 76l430 899q56 109 164 109q40 0 82 -13q72 -25 72 -73
q0 -47 -21 -107q-159 -590 -159 -954q0 -378 96 -541q20 -31 20 -47t-22 -33q-24 -16 -47 -16zM414 1375q-16 0 -39 12q-55 34 -55 71q0 22 25 56q77 104 143 207q43 67 121 79q130 -15 174 -141l12 -43q23 -88 37 -110q12 -29 12 -41q0 -18 -12 -27q-17 -10 -26 -10
q-31 0 -66 41q-49 45 -66 92q-21 84 -47 84q-28 0 -67 -74q-4 -5 -43 -70q-25 -36 -45 -71q-25 -55 -58 -55z" />
    <glyph glyph-name="Atilde" unicode="&#xc3;" horiz-adv-x="745" 
d="M262 393q22 0 49 6q73 16 82 72l10 66q37 188 37 270q0 35 -8 35q-17 0 -137 -240q-74 -154 -74 -192q0 -17 41 -17zM625 -385q-47 0 -86 41q-68 74 -97 188q-26 100 -45 217q-12 81 -24 127q-17 48 -37 48q-97 0 -158 -21q-60 -20 -82 -109q-7 -32 -10 -75
q-21 -167 -47 -185q-15 -12 -37 -12q-32 0 -68 27q-69 44 -69 116q0 32 16 74q15 41 15 62q0 22 -23 22q-19 0 -78 -24q-55 -27 -76 -27q-32 0 -59 37q-31 34 -31 80q0 45 54 73q53 26 135 41q145 32 192 76l430 899q56 109 164 109q40 0 82 -13q72 -25 72 -73
q0 -47 -21 -107q-159 -590 -159 -954q0 -378 96 -541q20 -31 20 -47t-22 -33q-24 -16 -47 -16zM707 1451q-105 0 -182 53q-20 15 -47 15q-33 0 -56 -28q-14 -19 -31 -21h-7q-27 0 -43 18.5t-19 33t-3 24.5v4q0 25 20 57q18 29 69 61q32 22 50 25q11 2 29 2q12 0 27 -6.5
t24 -12.5l9 -7q27 -21 86 -52q41 -18 73 -18q64 0 98 85q25 25 45 25q25 0 45 -40q13 -28 13 -61q0 -3 -0.5 -9t-0.5 -10q-1 -19 -27 -55q-16 -21 -21 -25q-70 -58 -151 -58z" />
    <glyph glyph-name="Adieresis" unicode="&#xc4;" horiz-adv-x="745" 
d="M262 393q22 0 49 6q73 16 82 72l10 66q37 188 37 270q0 35 -8 35q-17 0 -137 -240q-74 -154 -74 -192q0 -17 41 -17zM625 -385q-47 0 -86 41q-68 74 -97 188q-26 100 -45 217q-12 81 -24 127q-17 48 -37 48q-97 0 -158 -21q-60 -20 -82 -109q-7 -32 -10 -75
q-21 -167 -47 -185q-15 -12 -37 -12q-32 0 -68 27q-69 44 -69 116q0 32 16 74q15 41 15 62q0 22 -23 22q-19 0 -78 -24q-55 -27 -76 -27q-32 0 -59 37q-31 34 -31 80q0 45 54 73q53 26 135 41q145 32 192 76l430 899q56 109 164 109q40 0 82 -13q72 -25 72 -73
q0 -47 -21 -107q-159 -590 -159 -954q0 -378 96 -541q20 -31 20 -47t-22 -33q-24 -16 -47 -16zM486 1439l-13 1q-81 23 -86 70v10q0 53 39 121l21 41q14 30 40 34h8q24 0 47 -13q46 -25 49 -68v-5q0 -28 -25 -98q-37 -90 -80 -93zM758 1483h-6q-72 0 -72 84q19 103 35 139
q14 33 70 39q86 0 86 -92q0 -45 -29 -105q-26 -56 -84 -65z" />
    <glyph glyph-name="Aring" unicode="&#xc5;" horiz-adv-x="745" 
d="M262 393q22 0 49 6q73 16 82 72l10 66q37 188 37 270q0 35 -8 35q-17 0 -137 -240q-74 -154 -74 -192q0 -17 41 -17zM625 -385q-47 0 -86 41q-68 74 -97 188q-26 100 -45 217q-12 81 -24 127q-17 48 -37 48q-97 0 -158 -21q-60 -20 -82 -109q-7 -32 -10 -75
q-21 -167 -47 -185q-15 -12 -37 -12q-32 0 -68 27q-69 44 -69 116q0 32 16 74q15 41 15 62q0 22 -23 22q-19 0 -78 -24q-55 -27 -76 -27q-32 0 -59 37q-31 34 -31 80q0 45 54 73q53 26 135 41q145 32 192 76l430 899q56 109 164 109q40 0 82 -13q72 -25 72 -73
q0 -47 -21 -107q-159 -590 -159 -954q0 -378 96 -541q20 -31 20 -47t-22 -33q-24 -16 -47 -16zM564 1533q7 0 31 22q58 55 94 135q10 35 10 43q0 7 -6 7q-13 0 -72 -90q-59 -91 -59 -113q0 -4 2 -4zM562 1418q-50 0 -94 51q-31 34 -31 76q0 66 57 148q105 147 156 147
q18 0 35 -8q89 -47 104 -139q-3 -79 -65 -158q-84 -117 -162 -117z" />
    <glyph glyph-name="AE" unicode="&#xc6;" horiz-adv-x="1247" 
d="M221 418l19 4q102 15 157 70l6 45q37 188 37 270q0 35 -8 35q-17 0 -137 -240q-66 -140 -74 -184zM625 -385q-47 0 -86 41q-68 74 -97 188q-26 100 -45 217q-12 81 -24 127q-17 48 -37 48q-97 0 -158 -21q-60 -20 -82 -109q-7 -32 -10 -75q-21 -167 -47 -185
q-15 -12 -37 -12q-32 0 -68 27q-69 44 -69 116q0 32 16 74q15 41 15 62q0 22 -23 22q-19 0 -78 -24q-55 -27 -76 -27q-32 0 -59 37q-31 34 -31 80q0 45 54 73q53 26 135 41q145 32 192 76l430 899q56 109 164 109q95 0 135 -43q9 2 27 2q74 0 74 -39v-12q-11 -42 -11 -45
q0 -31 60 -31q195 29 291 29q78 0 125 -15q62 -21 65 -84q0 -51 -41 -51q-528 0 -579 -117q-8 -31 -35 -96q-82 -206 -82 -287q0 -55 74 -55q31 0 122 18q114 27 228 27q181 0 190 -117q0 -50 -59 -53q-61 0 -170 8q-144 0 -268 -37q-111 -32 -144 -79q-18 -28 -18 -76
q0 -323 88 -326q113 0 231 103q27 22 47 22q21 0 39 -18q17 -20 17 -41q0 -89 -166 -166q-49 -24 -119 -27q-49 0 -92 10q19 -55 41 -88q20 -34 20 -51q0 -16 -22 -33q-24 -16 -47 -16z" />
    <glyph glyph-name="Ccedilla" unicode="&#xc7;" horiz-adv-x="973" 
d="M285 -357q-7 -1 -21 -1q-282 0 -282 335q33 722 503 1276q71 78 160 78l53 -2q49 -3 99 -86q24 -43 24 -102q0 -27 -6 -62q-28 -118 -92 -118q-31 0 -37 26q-6 27 -6 57q0 10 -2 58q-2 35 -23 35q-49 0 -112 -99q-232 -335 -305 -719q-39 -199 -39 -325q0 -120 34 -172
q17 -33 78 -33q133 0 480 256l26 25q38 41 66 41q12 0 37 -15t26 -33q0 -56 -67 -133q-72 -81 -224 -166q-100 -57 -203 -88q-2 -7 -6 -11q-10 -19 -10 -35q0 -23 47 -43q137 -45 137 -156q0 -79 -70 -149q-67 -70 -157 -70q-53 0 -88 25q-38 26 -39 43q-1 4 -1 11
q0 20 16 26q17 6 42 6h6q23 0 36 7q37 26 58 66q18 39 18 69q0 39 -33 43q-60 8 -87 24q-27 17 -33 37q-6 21 -6 43v9q0 4 1 11t2 11z" />
    <glyph glyph-name="Egrave" unicode="&#xc8;" horiz-adv-x="842" 
d="M319 -207q-59 0 -102 12q-194 72 -209 295q-3 150 -10 162q-8 14 -35 14q-45 -5 -90 -16q-24 -6 -45 -6q-31 0 -45 14q-43 34 -43 88q0 51 92 66q133 18 184 106q21 24 68 207q41 166 41 199q-3 35 -84 35h-27q-23 0 -39 26q-15 29 -18 58q0 48 59 69q34 13 62 21
q58 15 104 47q47 27 74 98q24 70 104 70q74 0 74 -39l-2 -12q-8 -31 -8 -45q0 -31 57 -31q195 29 293 29q76 0 123 -15q63 -22 66 -84q0 -51 -39 -51q-530 0 -582 -117q-8 -33 -35 -96q-80 -213 -80 -287q0 -55 74 -55q28 0 121 18q117 27 229 27q180 0 189 -117
q0 -50 -60 -53q-61 0 -184 8q-130 0 -254 -37q-112 -32 -143 -79q-19 -28 -19 -76q0 -323 88 -326q114 0 232 103q28 22 49 22q17 0 37 -18q16 -21 16 -41q0 -90 -166 -166q-49 -24 -117 -27zM607 1337q-32 0 -59 29q-248 260 -261 282q-8 16 -8 29q0 11 10 33q23 34 68 34
q106 0 238 -184q82 -119 82 -170q0 -21 -23 -37q-22 -16 -47 -16z" />
    <glyph glyph-name="Eacute" unicode="&#xc9;" horiz-adv-x="842" 
d="M319 -207q-59 0 -102 12q-194 72 -209 295q-3 150 -10 162q-8 14 -35 14q-45 -5 -90 -16q-24 -6 -45 -6q-31 0 -45 14q-43 34 -43 88q0 51 92 66q133 18 184 106q21 24 68 207q41 166 41 199q-3 35 -84 35h-27q-23 0 -39 26q-15 29 -18 58q0 48 59 69q34 13 62 21
q58 15 104 47q47 27 74 98q24 70 104 70q74 0 74 -39l-2 -12q-8 -31 -8 -45q0 -31 57 -31q195 29 293 29q76 0 123 -15q63 -22 66 -84q0 -51 -39 -51q-530 0 -582 -117q-8 -33 -35 -96q-80 -213 -80 -287q0 -55 74 -55q28 0 121 18q117 27 229 27q180 0 189 -117
q0 -50 -60 -53q-61 0 -184 8q-130 0 -254 -37q-112 -32 -143 -79q-19 -28 -19 -76q0 -323 88 -326q114 0 232 103q28 22 49 22q17 0 37 -18q16 -21 16 -41q0 -90 -166 -166q-49 -24 -117 -27zM494 1359q-25 0 -47 16q-23 15 -23 37q0 51 82 170q132 184 238 184q45 0 67 -34
q11 -24 11 -33q0 -14 -9 -29q-10 -20 -260 -282q-27 -29 -59 -29z" />
    <glyph glyph-name="Ecircumflex" unicode="&#xca;" horiz-adv-x="842" 
d="M319 -207q-59 0 -102 12q-194 72 -209 295q-3 150 -10 162q-8 14 -35 14q-45 -5 -90 -16q-24 -6 -45 -6q-31 0 -45 14q-43 34 -43 88q0 51 92 66q133 18 184 106q21 24 68 207q41 166 41 199q-3 35 -84 35h-27q-23 0 -39 26q-15 29 -18 58q0 48 59 69q34 13 62 21
q58 15 104 47q47 27 74 98q24 70 104 70q74 0 74 -39l-2 -12q-8 -31 -8 -45q0 -31 57 -31q195 29 293 29q76 0 123 -15q63 -22 66 -84q0 -51 -39 -51q-530 0 -582 -117q-8 -33 -35 -96q-80 -213 -80 -287q0 -55 74 -55q28 0 121 18q117 27 229 27q180 0 189 -117
q0 -50 -60 -53q-61 0 -184 8q-130 0 -254 -37q-112 -32 -143 -79q-19 -28 -19 -76q0 -323 88 -326q114 0 232 103q28 22 49 22q17 0 37 -18q16 -21 16 -41q0 -90 -166 -166q-49 -24 -117 -27zM178 1301q-16 0 -39 12q-55 34 -55 71q0 22 25 56q77 104 143 207q43 67 121 79
q130 -15 174 -141l12 -43q23 -88 37 -110q12 -29 12 -41q0 -18 -12 -27q-17 -10 -26 -10q-31 0 -66 41q-49 45 -66 92q-21 84 -47 84q-28 0 -67 -74q-4 -5 -43 -70q-25 -36 -45 -71q-25 -55 -58 -55z" />
    <glyph glyph-name="Edieresis" unicode="&#xcb;" horiz-adv-x="842" 
d="M319 -207q-59 0 -102 12q-194 72 -209 295q-3 150 -10 162q-8 14 -35 14q-45 -5 -90 -16q-24 -6 -45 -6q-31 0 -45 14q-43 34 -43 88q0 51 92 66q133 18 184 106q21 24 68 207q41 166 41 199q-3 35 -84 35h-27q-23 0 -39 26q-15 29 -18 58q0 48 59 69q34 13 62 21
q58 15 104 47q47 27 74 98q24 70 104 70q74 0 74 -39l-2 -12q-8 -31 -8 -45q0 -31 57 -31q195 29 293 29q76 0 123 -15q63 -22 66 -84q0 -51 -39 -51q-530 0 -582 -117q-8 -33 -35 -96q-80 -213 -80 -287q0 -55 74 -55q28 0 121 18q117 27 229 27q180 0 189 -117
q0 -50 -60 -53q-61 0 -184 8q-130 0 -254 -37q-112 -32 -143 -79q-19 -28 -19 -76q0 -323 88 -326q114 0 232 103q28 22 49 22q17 0 37 -18q16 -21 16 -41q0 -90 -166 -166q-49 -24 -117 -27zM246 1390l-13 1q-81 23 -86 70v10q0 53 39 121l21 41q14 30 40 34h8q24 0 47 -13
q46 -25 49 -68v-5q0 -28 -25 -98q-37 -90 -80 -93zM518 1434h-6q-72 0 -72 84q19 103 35 139q14 33 70 39q86 0 86 -92q0 -45 -29 -105q-26 -56 -84 -65z" />
    <glyph glyph-name="Igrave" unicode="&#xcc;" horiz-adv-x="625" 
d="M-137 -274q-16 0 -49 6q-35 6 -35 69q0 34 22 58q20 16 93 51q70 30 102 80q29 48 102 465q121 662 121 675q0 27 -12 27q-27 0 -107 -43q-117 -69 -188 -72q-54 0 -84 50q-10 23 -10 53q0 31 71 55q418 180 611 197q71 6 118 6q156 0 156 -82q0 -10 -2 -25
q-3 -22 -72 -28q-107 -11 -174 -29q-56 -14 -82 -68q-27 -57 -71 -247q-122 -454 -137 -764l-3 -17q5 -59 33 -59q26 0 66 16q76 33 184 33q105 -3 105 -96q0 -59 -111 -62q-113 -3 -234 -53q-127 -56 -331 -172q-40 -24 -82 -24zM369 1408q-32 0 -59 29q-248 260 -261 282
q-8 16 -8 29q0 11 10 33q23 34 68 34q106 0 238 -184q82 -119 82 -170q0 -21 -23 -37q-22 -16 -47 -16z" />
    <glyph glyph-name="Iacute" unicode="&#xcd;" horiz-adv-x="625" 
d="M-137 -274q-16 0 -49 6q-35 6 -35 69q0 34 22 58q20 16 93 51q70 30 102 80q29 48 102 465q121 662 121 675q0 27 -12 27q-27 0 -107 -43q-117 -69 -188 -72q-54 0 -84 50q-10 23 -10 53q0 31 71 55q418 180 611 197q71 6 118 6q156 0 156 -82q0 -10 -2 -25
q-3 -22 -72 -28q-107 -11 -174 -29q-56 -14 -82 -68q-27 -57 -71 -247q-122 -454 -137 -764l-3 -17q5 -59 33 -59q26 0 66 16q76 33 184 33q105 -3 105 -96q0 -59 -111 -62q-113 -3 -234 -53q-127 -56 -331 -172q-40 -24 -82 -24zM213 1358q-25 0 -47 16q-23 15 -23 37
q0 51 82 170q132 184 238 184q45 0 67 -34q11 -24 11 -33q0 -14 -9 -29q-10 -20 -260 -282q-27 -29 -59 -29z" />
    <glyph glyph-name="Icircumflex" unicode="&#xce;" horiz-adv-x="625" 
d="M-137 -274q-16 0 -49 6q-35 6 -35 69q0 34 22 58q20 16 93 51q70 30 102 80q29 48 102 465q121 662 121 675q0 27 -12 27q-27 0 -107 -43q-117 -69 -188 -72q-54 0 -84 50q-10 23 -10 53q0 31 71 55q418 180 611 197q71 6 118 6q156 0 156 -82q0 -10 -2 -25
q-3 -22 -72 -28q-107 -11 -174 -29q-56 -14 -82 -68q-27 -57 -71 -247q-122 -454 -137 -764l-3 -17q5 -59 33 -59q26 0 66 16q76 33 184 33q105 -3 105 -96q0 -59 -111 -62q-113 -3 -234 -53q-127 -56 -331 -172q-40 -24 -82 -24zM103 1372q-17 0 -39 12q-55 34 -55 71
q0 22 25 56q77 104 143 207q43 67 121 79q130 -15 174 -141l12 -43q23 -88 37 -110q12 -28 12 -41q0 -18 -12 -27q-17 -10 -26 -10q-31 0 -66 41q-49 45 -66 92q-21 84 -47 84q-28 0 -67 -74q-4 -5 -43 -70q-25 -36 -45 -71q-25 -55 -58 -55z" />
    <glyph glyph-name="Idieresis" unicode="&#xcf;" horiz-adv-x="625" 
d="M-137 -274q-16 0 -49 6q-35 6 -35 69q0 34 22 58q20 16 93 51q70 30 102 80q29 48 102 465q121 662 121 675q0 27 -12 27q-27 0 -107 -43q-117 -69 -188 -72q-54 0 -84 50q-10 23 -10 53q0 31 71 55q418 180 611 197q71 6 118 6q156 0 156 -82q0 -10 -2 -25
q-3 -22 -72 -28q-107 -11 -174 -29q-56 -14 -82 -68q-27 -57 -71 -247q-122 -454 -137 -764l-3 -17q5 -59 33 -59q26 0 66 16q76 33 184 33q105 -3 105 -96q0 -59 -111 -62q-113 -3 -234 -53q-127 -56 -331 -172q-40 -24 -82 -24zM176 1423l-13 1q-81 23 -86 70v10
q0 53 39 121l21 41q14 30 40 34h8q24 0 47 -13q46 -25 49 -68v-5q0 -28 -25 -98q-37 -90 -80 -93zM448 1467h-6q-72 0 -72 84q19 103 35 139q14 33 70 39q86 0 86 -92q0 -45 -29 -105q-26 -56 -84 -65z" />
    <glyph glyph-name="Eth" unicode="&#xd0;" horiz-adv-x="909" 
d="M90 981q-50 17 -53 72q0 17 4 30q63 232 360 340q135 52 244 52q119 0 201 -68q69 -61 69 -231q0 -22 -8 -158q-7 -126 -102 -369q-94 -241 -230 -456q-134 -216 -278 -332q-115 -92 -197 -92q-38 0 -69 18q-47 27 -47 174q0 181 78 550v4q0 11 -13 11q-22 0 -84 -32
q-40 -26 -61 -26h-4q-11 3 -15 94v31q7 63 66 90q44 21 109 34q21 4 36 19q14 14 18 34q25 128 25 156q0 40 -49 55zM381 725q41 -9 67 -29q25 -36 25 -82q0 -7 -2 -25q-7 -69 -40 -69l-6 1q-13 3 -27 17q-18 12 -52 20q-15 3 -28 3q-18 0 -44 -8q-24 -7 -28 -29
q-44 -200 -70 -436q2 -104 27 -104q64 3 243 356q114 224 209 463q115 294 115 409q0 142 -154 142q-82 -3 -139 -31q-58 -31 -67 -74q-86 -404 -111 -491q-1 -2 -1 -6q0 -14 25 -17q28 -4 58 -10z" />
    <glyph glyph-name="Ntilde" unicode="&#xd1;" horiz-adv-x="1137" 
d="M150 -289h-9q-23 0 -43 8q-93 35 -102 105q-2 8 -2 108q0 535 104 1069q50 361 275 361q114 0 147 -131l37 -236q45 -298 127 -626q27 -103 43 -103q14 3 25 92q76 450 237 1069l12 68q23 164 123 164q117 0 129 -82q0 -33 -14 -68q-55 -160 -147 -491
q-211 -740 -211 -1022q0 -50 12 -105q0 -32 -33 -51q-31 -20 -78 -20q-79 0 -118 71q-213 316 -277 777q-61 407 -74 407q-9 0 -24 -57q-44 -134 -92 -582q-31 -300 -31 -452q0 -51 4 -97q3 -35 27 -67q10 -13 22 -47q0 -17 -20 -37q-22 -22 -49 -25zM718 1446
q-105 0 -182 53q-20 15 -47 15q-33 0 -56 -28q-14 -19 -31 -21h-7q-27 0 -43 18.5t-19 33t-3 24.5v4q0 25 20 57q18 29 69 61q32 22 50 25q11 2 29 2q12 0 27 -6.5t24 -13.5l9 -6q27 -21 86 -52q41 -18 73 -18q64 0 98 85q25 25 45 25q25 0 45 -40q13 -28 13 -61
q0 -3 -0.5 -9t-0.5 -10q-1 -19 -27 -55q-16 -21 -21 -25q-70 -58 -151 -58z" />
    <glyph glyph-name="Ograve" unicode="&#xd2;" horiz-adv-x="934" 
d="M311 -121q42 0 86 31q211 151 351 833q55 277 55 373q0 25 -2 33q-28 223 -209 223q-29 0 -43 -2q-23 -3 -47 -20q-23 -17 -101 -195q-79 -185 -145 -455q-55 -224 -55 -471q3 -286 86 -344q9 -6 24 -6zM297 -238q-111 0 -195 88q-98 106 -98 340v46q21 689 361 1316
q44 94 110 103q21 0 45 -4q127 -29 139 -119q4 -55 13 -62q10 -7 45 -18q244 -111 244 -352q0 -130 -56 -418q-97 -525 -321 -780q-122 -140 -287 -140zM797 1542q-32 0 -59 29q-248 260 -261 282q-8 16 -8 29q0 11 10 33q23 34 68 34q106 0 238 -184q82 -119 82 -170
q0 -21 -23 -37q-22 -16 -47 -16z" />
    <glyph glyph-name="Oacute" unicode="&#xd3;" horiz-adv-x="934" 
d="M311 -121q42 0 86 31q211 151 351 833q55 277 55 373q0 25 -2 33q-28 223 -209 223q-29 0 -43 -2q-23 -3 -47 -20q-23 -17 -101 -195q-79 -185 -145 -455q-55 -224 -55 -471q3 -286 86 -344q9 -6 24 -6zM297 -238q-111 0 -195 88q-98 106 -98 340v46q21 689 361 1316
q44 94 110 103q21 0 45 -4q127 -29 139 -119q4 -55 13 -62q10 -7 45 -18q244 -111 244 -352q0 -130 -56 -418q-97 -525 -321 -780q-122 -140 -287 -140zM747 1515q-25 0 -47 16q-23 15 -23 37q0 51 82 170q132 184 238 184q45 0 67 -34q11 -24 11 -33q0 -14 -9 -29
q-10 -20 -260 -282q-27 -29 -59 -29z" />
    <glyph glyph-name="Ocircumflex" unicode="&#xd4;" horiz-adv-x="934" 
d="M311 -121q42 0 86 31q211 151 351 833q55 277 55 373q0 25 -2 33q-28 223 -209 223q-29 0 -43 -2q-23 -3 -47 -20q-23 -17 -101 -195q-79 -185 -145 -455q-55 -224 -55 -471q3 -286 86 -344q9 -6 24 -6zM297 -238q-111 0 -195 88q-98 106 -98 340v46q21 689 361 1316
q44 94 110 103q21 0 45 -4q127 -29 139 -119q4 -55 13 -62q10 -7 45 -18q244 -111 244 -352q0 -130 -56 -418q-97 -525 -321 -780q-122 -140 -287 -140zM345 1609q-17 0 -39 12q-55 34 -55 71q0 22 25 56q77 104 143 207q43 67 121 79q130 -15 174 -141l12 -43
q23 -88 37 -110q12 -29 12 -41q0 -18 -12 -27q-17 -10 -26 -10q-31 0 -66 41q-49 45 -66 92q-21 84 -47 84q-28 0 -67 -74q-4 -5 -43 -70q-25 -36 -45 -71q-25 -55 -58 -55z" />
    <glyph glyph-name="Otilde" unicode="&#xd5;" horiz-adv-x="934" 
d="M311 -121q42 0 86 31q211 151 351 833q55 277 55 373q0 25 -2 33q-28 223 -209 223q-29 0 -43 -2q-23 -3 -47 -20q-23 -17 -101 -195q-79 -185 -145 -455q-55 -224 -55 -471q3 -286 86 -344q9 -6 24 -6zM297 -238q-111 0 -195 88q-98 106 -98 340v46q21 689 361 1316
q44 94 110 103q21 0 45 -4q127 -29 139 -119q4 -55 13 -62q10 -7 45 -18q244 -111 244 -352q0 -130 -56 -418q-97 -525 -321 -780q-122 -140 -287 -140zM737 1699q-105 0 -182 53q-20 15 -47 15q-33 0 -56 -28q-14 -19 -31 -21h-7q-27 0 -43 18.5t-19 33t-3 24.5v4
q0 25 20 57q18 29 69 61q32 22 50 25q11 2 29 2q12 0 27 -6.5t24 -12.5l9 -7q27 -21 86 -52q41 -18 73 -18q64 0 98 85q25 25 45 25q25 0 45 -40q13 -28 13 -61q0 -3 -0.5 -9t-0.5 -10q-1 -19 -27 -55q-16 -21 -21 -25q-70 -58 -151 -58z" />
    <glyph glyph-name="Odieresis" unicode="&#xd6;" horiz-adv-x="934" 
d="M311 -121q42 0 86 31q211 151 351 833q55 277 55 373q0 25 -2 33q-28 223 -209 223q-29 0 -43 -2q-23 -3 -47 -20q-23 -17 -101 -195q-79 -185 -145 -455q-55 -224 -55 -471q3 -286 86 -344q9 -6 24 -6zM297 -238q-111 0 -195 88q-98 106 -98 340v46q21 689 361 1316
q44 94 110 103q21 0 45 -4q127 -29 139 -119q4 -55 13 -62q10 -7 45 -18q244 -111 244 -352q0 -130 -56 -418q-97 -525 -321 -780q-122 -140 -287 -140zM409 1692l-13 1q-81 23 -86 70v10q0 53 39 121l21 41q14 30 40 34h8q24 0 47 -13q46 -25 49 -68v-5q0 -28 -25 -98
q-37 -90 -80 -93zM681 1736h-6q-72 0 -72 84q19 103 35 139q14 33 70 39q86 0 86 -92q0 -45 -29 -105q-26 -56 -84 -65z" />
    <glyph glyph-name="multiply" unicode="&#xd7;" horiz-adv-x="668" 
d="M31 -63q-28 0 -58 20q-53 36 -53 72q0 27 29 61q52 63 102 139q34 51 60 84q24 31 24 68q0 24 -12 51q-121 281 -121 318q0 51 49 51q23 0 51 -17q96 -71 129 -184q0 -12 15 -35q12 -21 28 -24q13 0 21 8q8 12 14 20q6 14 94 121q117 144 129 158q27 29 54 29q2 0 5 -1
t9 -2l12 -2q17 -3 45 -34t31 -64l-51 -67q-65 -83 -107 -140q-57 -79 -139 -172q-35 -35 -35 -69q0 -32 31 -68q74 -95 172 -160q39 -23 39 -51q0 -11 -10 -29q-16 -22 -35 -22q-52 0 -244 162q-27 24 -55 24q-58 0 -135 -157q-40 -88 -88 -88z" />
    <glyph glyph-name="Oslash" unicode="&#xd8;" horiz-adv-x="934" 
d="M201 229q1 -70 17.5 -129.5t34 -87.5t27.5 -28q4 0 5 6q73 503 335 1325q1 2 1 8q0 16 -9.5 32.5t-19.5 16.5q-29 0 -43 -2q-23 -3 -47 -20q-23 -17 -101 -195q-79 -185 -145 -455q-55 -224 -55 -471zM480 80q-3 -12 -3 -23q0 -17 5 -28.5t11 -11.5q3 0 8 6
q142 218 247 720q55 277 55 373q0 14 -8 25.5t-15 11.5q-6 0 -7 -6q-219 -696 -293 -1067zM401 -444q-34 0 -51 2q-27 3 -57 28q-34 28 -37 76q-4 57 -10 81.5t-19 27.5q-63 13 -125 79q-98 106 -98 340v46q21 689 361 1316q44 94 110 103q21 0 45 -4q127 -29 139 -119
q2 -27 17 -27l8 2l78 236q24 70 88 76q98 0 98 -101q0 -43 -91 -307q-4 -12 -4 -25q0 -24 17 -41q91 -100 91 -245q0 -130 -56 -418q-97 -525 -321 -780q-50 -59 -108 -92q-12 -7 -24.5 -24t-12.5 -38v-2q5 -86 22 -147q0 -40 -60 -43z" />
    <glyph glyph-name="Ugrave" unicode="&#xd9;" horiz-adv-x="1012" 
d="M782 -250h-16q-83 0 -92 96q-10 202 -10 246q0 132 16 266q20 191 20 273q-3 49 -14 49q-18 -4 -53 -84q-168 -395 -195 -455q-34 -75 -76 -129q-55 -78 -174 -78q-108 0 -172 89q-32 58 -32 182q0 69 16 229q16 164 66 393q53 255 84 353q12 45 65 45q14 0 59 -6
q45 -10 45 -60q0 -40 -14 -92q-22 -80 -76 -426q-53 -329 -53 -436q0 -29 2 -70q0 -63 19 -63q34 3 632 1167q31 51 93 51q111 0 114 -53q0 -39 -14 -74q-184 -506 -184 -1044q0 -52 4 -158q6 -46 20 -84q15 -41 15 -78q0 -40 -95 -49zM608 1215q-32 0 -59 29
q-248 260 -261 282q-8 16 -8 29q0 11 10 33q23 34 68 34q106 0 238 -184q82 -119 82 -170q0 -21 -23 -37q-22 -16 -47 -16z" />
    <glyph glyph-name="Uacute" unicode="&#xda;" horiz-adv-x="1012" 
d="M782 -250h-16q-83 0 -92 96q-10 202 -10 246q0 132 16 266q20 191 20 273q-3 49 -14 49q-18 -4 -53 -84q-168 -395 -195 -455q-34 -75 -76 -129q-55 -78 -174 -78q-108 0 -172 89q-32 58 -32 182q0 69 16 229q16 164 66 393q53 255 84 353q12 45 65 45q14 0 59 -6
q45 -10 45 -60q0 -40 -14 -92q-22 -80 -76 -426q-53 -329 -53 -436q0 -29 2 -70q0 -63 19 -63q34 3 632 1167q31 51 93 51q111 0 114 -53q0 -39 -14 -74q-184 -506 -184 -1044q0 -52 4 -158q6 -46 20 -84q15 -41 15 -78q0 -40 -95 -49zM524 1221q-25 0 -47 16q-23 15 -23 37
q0 51 82 170q132 184 238 184q45 0 67 -34q11 -24 11 -33q0 -14 -9 -29q-10 -20 -260 -282q-27 -29 -59 -29z" />
    <glyph glyph-name="Ucircumflex" unicode="&#xdb;" horiz-adv-x="1012" 
d="M782 -250h-16q-83 0 -92 96q-10 202 -10 246q0 132 16 266q20 191 20 273q-3 49 -14 49q-18 -4 -53 -84q-168 -395 -195 -455q-34 -75 -76 -129q-55 -78 -174 -78q-108 0 -172 89q-32 58 -32 182q0 69 16 229q16 164 66 393q53 255 84 353q12 45 65 45q14 0 59 -6
q45 -10 45 -60q0 -40 -14 -92q-22 -80 -76 -426q-53 -329 -53 -436q0 -29 2 -70q0 -63 19 -63q34 3 632 1167q31 51 93 51q111 0 114 -53q0 -39 -14 -74q-184 -506 -184 -1044q0 -52 4 -158q6 -46 20 -84q15 -41 15 -78q0 -40 -95 -49zM402 1255q-16 0 -39 12q-55 34 -55 71
q0 22 25 56q77 104 143 207q43 67 121 79q130 -15 174 -141l12 -43q23 -88 37 -110q12 -28 12 -41q0 -18 -12 -27q-17 -10 -26 -10q-31 0 -66 41q-49 45 -66 92q-21 84 -47 84q-28 0 -67 -74q-4 -5 -43 -70q-25 -36 -45 -71q-25 -55 -58 -55z" />
    <glyph glyph-name="Udieresis" unicode="&#xdc;" horiz-adv-x="1012" 
d="M782 -250h-16q-83 0 -92 96q-10 202 -10 246q0 132 16 266q20 191 20 273q-3 49 -14 49q-18 -4 -53 -84q-168 -395 -195 -455q-34 -75 -76 -129q-55 -78 -174 -78q-108 0 -172 89q-32 58 -32 182q0 69 16 229q16 164 66 393q53 255 84 353q12 45 65 45q14 0 59 -6
q45 -10 45 -60q0 -40 -14 -92q-22 -80 -76 -426q-53 -329 -53 -436q0 -29 2 -70q0 -63 19 -63q34 3 632 1167q31 51 93 51q111 0 114 -53q0 -39 -14 -74q-184 -506 -184 -1044q0 -52 4 -158q6 -46 20 -84q15 -41 15 -78q0 -40 -95 -49zM454 1262l-13 1q-81 23 -86 70v10
q0 53 39 121l21 41q14 30 40 34h8q24 0 47 -13q46 -25 49 -68v-5q0 -28 -25 -98q-37 -90 -80 -93zM726 1306h-6q-72 0 -72 84q19 103 35 139q14 33 70 39q86 0 86 -92q0 -45 -29 -105q-26 -56 -84 -65z" />
    <glyph glyph-name="Yacute" unicode="&#xdd;" horiz-adv-x="989" 
d="M741 -838h-8q-196 9 -207 500q0 28 5 145q4 100 41 348q37 245 61 330q20 82 20 95q-6 0 -47 -80q-264 -539 -448 -539q-10 0 -88 12q-80 11 -105 191q-10 56 -10 293q0 214 70 555q46 209 67 288q41 107 117 107q82 0 82 -74q0 -51 -33 -180q-104 -389 -104 -756
q0 -89 4 -164q4 -69 28 -69q25 0 54 29q47 54 197 316q186 326 307 548q153 279 204 389q23 46 74 47q49 0 72 -26q22 -25 22 -54q0 -27 -14 -57q-71 -147 -157 -434q-91 -298 -146 -643q-60 -376 -60 -631q0 -33 2 -97q13 -199 105 -288q20 -20 20 -37q0 -22 -43 -41
q-43 -22 -82 -23zM544 1386q-25 0 -47 16q-23 15 -23 37q0 51 82 170q132 184 238 184q45 0 67 -34q11 -24 11 -33q0 -14 -9 -29q-10 -20 -260 -282q-27 -29 -59 -29z" />
    <glyph glyph-name="Thorn" unicode="&#xde;" horiz-adv-x="852" 
d="M229 74q-1 -4 -1 -12q0 -17 14 -17q24 0 59 35q347 347 530 780q35 97 35 160q0 158 -217 158h-45q-67 0 -101 -19q-47 -26 -56 -60q-64 -259 -139 -633t-79 -392zM-3 -544q-34 -13 -83 -13q-9 0 -13 1q-35 6 -35 70q0 36 23 57l57 41q12 6 35 109t72 347q8 44 13 67
q66 329 135 670t98 485.5t29 149.5q0 27 -12 27l-59 -16q-10 -2 -14 -2q-40 0 -70 52q-1 3 -5.5 11t-7.5 15t-3 13q0 8 6 14q45 44 145.5 80t179.5 50l78 13q145 0 145 -86v-7q0 -10 -2 -25l-21 -12l-27 -10q-27 -10 -36.5 -15t-29.5 -15.5t-29.5 -22t-12.5 -23.5
q-2 -7 -6.5 -22t-15 -48t-22.5 -75q-2 -10 -2 -18q0 -32 16 -32l4 1q39 11 118 11q162 0 275 -86q127 -95 127 -258q0 -54 -21 -110q-47 -121 -74 -154q-196 -362 -469 -655q-92 -109 -209 -121h-7q-28 0 -44 -10t-19 -20l-2 -10q-12 -58 -12 -106q0 -62 26 -62q43 16 86 16
q84 0 84 -79q0 -11 -1 -17q-2 -17 -41.5 -37.5t-77.5 -32.5l-39 -11q-67 -29 -230 -89z" />
    <glyph glyph-name="germandbls" unicode="&#xdf;" horiz-adv-x="803" 
d="M25 -485h-10q-77 0 -83 92l-1 39q0 108 22 338q26 257 84 533q151 734 456 755l20 1q73 0 125 -38q66 -50 74 -157q0 -311 -152 -612q-15 -30 -15 -49v-4q2 -23 67 -42q142 -44 154 -213l1 -32q0 -139 -81 -286q-169 -307 -323 -318l-15 -1q-42 0 -91 22q-45 19 -49 83v7
q0 38 31 47h2q20 0 59 -25q17 -10 35 -10h5q19 5 31 17q101 117 166 281q56 148 56 239l-1 21q-4 78 -54 78h-4q-37 -3 -77 -26q-45 -25 -88 -29h-10q-49 0 -76 29q-5 5 -10 20v3q0 26 27 63q222 295 225 767l-1 20q-2 15 -17 15h-3q-32 -1 -60 -45q-117 -167 -188 -364
q-173 -481 -173 -993q0 -70 3 -142v-7q0 -72 -61 -77z" />
    <glyph glyph-name="agrave" unicode="&#xe0;" horiz-adv-x="715" 
d="M602 -10q-11 0 -29 4q-161 52 -161 242q0 67 -15 67q-3 0 -100 -125q-63 -80 -107 -129q-51 -59 -104 -59q-38 0 -80 22q-84 47 -84 144q0 22 6 51q53 258 246 512q80 104 166 104q55 0 96 -32q43 -34 43 -60t-8 -39q-21 -43 -49 -43t-45 10q-13 9 -29 13q-10 0 -33 -29
q-83 -112 -176 -356q-12 -31 -12 -43q0 -11 6 -11q31 0 176 183q186 231 226 243q20 7 38 7q15 0 27 -4q57 -31 57 -117q0 -31 -10 -76q-37 -154 -37 -262q0 -81 35 -162q8 -13 8 -27q0 -28 -51 -28zM555 781q-32 0 -59 29q-248 260 -261 282q-8 16 -8 29q0 11 10 33
q23 34 68 34q106 0 238 -184q82 -119 82 -170q0 -21 -23 -37q-22 -16 -47 -16z" />
    <glyph glyph-name="aacute" unicode="&#xe1;" horiz-adv-x="715" 
d="M602 -10q-11 0 -29 4q-161 52 -161 242q0 67 -15 67q-3 0 -100 -125q-63 -80 -107 -129q-51 -59 -104 -59q-38 0 -80 22q-84 47 -84 144q0 22 6 51q53 258 246 512q80 104 166 104q55 0 96 -32q43 -34 43 -60t-8 -39q-21 -43 -49 -43t-45 10q-13 9 -29 13q-10 0 -33 -29
q-83 -112 -176 -356q-12 -31 -12 -43q0 -11 6 -11q31 0 176 183q186 231 226 243q20 7 38 7q15 0 27 -4q57 -31 57 -117q0 -31 -10 -76q-37 -154 -37 -262q0 -81 35 -162q8 -13 8 -27q0 -28 -51 -28zM208 814q-25 0 -47 16q-23 15 -23 37q0 51 82 170q132 184 238 184
q45 0 67 -34q11 -24 11 -33q0 -14 -9 -29q-10 -20 -260 -282q-27 -29 -59 -29z" />
    <glyph glyph-name="acircumflex" unicode="&#xe2;" horiz-adv-x="715" 
d="M602 -10q-11 0 -29 4q-161 52 -161 242q0 67 -15 67q-3 0 -100 -125q-63 -80 -107 -129q-51 -59 -104 -59q-38 0 -80 22q-84 47 -84 144q0 22 6 51q53 258 246 512q80 104 166 104q55 0 96 -32q43 -34 43 -60t-8 -39q-21 -43 -49 -43t-45 10q-13 9 -29 13q-10 0 -33 -29
q-83 -112 -176 -356q-12 -31 -12 -43q0 -11 6 -11q31 0 176 183q186 231 226 243q20 7 38 7q15 0 27 -4q57 -31 57 -117q0 -31 -10 -76q-37 -154 -37 -262q0 -81 35 -162q8 -13 8 -27q0 -28 -51 -28zM173 782q-17 0 -39 12q-55 34 -55 71q0 22 25 56q77 104 143 207
q43 67 121 79q130 -15 174 -141l12 -43q23 -88 37 -110q12 -28 12 -41q0 -18 -12 -27q-17 -10 -26 -10q-31 0 -66 41q-49 45 -66 92q-21 84 -47 84q-28 0 -67 -74q-4 -5 -43 -70q-25 -36 -45 -71q-25 -55 -58 -55z" />
    <glyph glyph-name="atilde" unicode="&#xe3;" horiz-adv-x="715" 
d="M602 -10q-11 0 -29 4q-161 52 -161 242q0 67 -15 67q-3 0 -100 -125q-63 -80 -107 -129q-51 -59 -104 -59q-38 0 -80 22q-84 47 -84 144q0 22 6 51q53 258 246 512q80 104 166 104q55 0 96 -32q43 -34 43 -60t-8 -39q-21 -43 -49 -43t-45 10q-13 9 -29 13q-10 0 -33 -29
q-83 -112 -176 -356q-12 -31 -12 -43q0 -11 6 -11q31 0 176 183q186 231 226 243q20 7 38 7q15 0 27 -4q57 -31 57 -117q0 -31 -10 -76q-37 -154 -37 -262q0 -81 35 -162q8 -13 8 -27q0 -28 -51 -28zM466 840q-105 0 -182 53q-20 15 -47 15q-33 0 -56 -28q-14 -19 -31 -21
h-7q-27 0 -43 18.5t-19 33t-3 24.5v4q0 25 20 57q18 29 69 61q32 22 50 25q11 2 29 2q12 0 27 -6.5t24 -13.5l9 -6q27 -21 86 -52q41 -18 73 -18q64 0 98 85q25 25 45 25q25 0 45 -40q13 -28 13 -61q0 -3 -0.5 -9t-0.5 -10q-1 -19 -27 -55q-16 -21 -21 -25q-70 -58 -151 -58
z" />
    <glyph glyph-name="adieresis" unicode="&#xe4;" horiz-adv-x="715" 
d="M602 -10q-11 0 -29 4q-161 52 -161 242q0 67 -15 67q-3 0 -100 -125q-63 -80 -107 -129q-51 -59 -104 -59q-38 0 -80 22q-84 47 -84 144q0 22 6 51q53 258 246 512q80 104 166 104q55 0 96 -32q43 -34 43 -60t-8 -39q-21 -43 -49 -43t-45 10q-13 9 -29 13q-10 0 -33 -29
q-83 -112 -176 -356q-12 -31 -12 -43q0 -11 6 -11q31 0 176 183q186 231 226 243q20 7 38 7q15 0 27 -4q57 -31 57 -117q0 -31 -10 -76q-37 -154 -37 -262q0 -81 35 -162q8 -13 8 -27q0 -28 -51 -28zM275 844l-13 1q-81 23 -86 70v10q0 53 39 121l21 41q14 30 40 34h8
q24 0 47 -13q46 -25 49 -68v-5q0 -28 -25 -98q-37 -90 -80 -93zM547 888h-6q-72 0 -72 84q19 103 35 139q14 33 70 39q86 0 86 -92q0 -45 -29 -105q-26 -56 -84 -65z" />
    <glyph glyph-name="aring" unicode="&#xe5;" horiz-adv-x="715" 
d="M602 -10q-11 0 -29 4q-161 52 -161 242q0 67 -15 67q-3 0 -100 -125q-63 -80 -107 -129q-51 -59 -104 -59q-38 0 -80 22q-84 47 -84 144q0 22 6 51q53 258 246 512q80 104 166 104q55 0 96 -32q43 -34 43 -60t-8 -39q-21 -43 -49 -43t-45 10q-13 9 -29 13q-10 0 -33 -29
q-83 -112 -176 -356q-12 -31 -12 -43q0 -11 6 -11q31 0 176 183q186 231 226 243q20 7 38 7q15 0 27 -4q57 -31 57 -117q0 -31 -10 -76q-37 -154 -37 -262q0 -81 35 -162q8 -13 8 -27q0 -28 -51 -28zM402 949q7 0 31 22q58 55 94 135q10 35 10 43q0 7 -6 7q-13 0 -72 -90
q-59 -91 -59 -113q0 -4 2 -4zM400 834q-50 0 -94 51q-31 34 -31 76q0 66 57 148q105 147 156 147q18 0 35 -8q89 -47 104 -139q-3 -79 -65 -158q-84 -117 -162 -117z" />
    <glyph glyph-name="ae" unicode="&#xe6;" horiz-adv-x="1069" 
d="M631 356q56 40 116 151.5t60 145.5q0 17 -21 17q-9 0 -48 -59.5t-76 -135.5t-37 -112v-5q2 -2 6 -2zM709 -74q-312 0 -312 289q0 21 6 82q-3 6 -6 6q-2 0 -14 -11t-36.5 -42t-49.5 -72q-73 -121 -132 -187q-51 -59 -108 -59q-35 3 -76 24q-84 47 -84 144q0 22 6 51
q26 126 100 281.5t169 288.5q32 46 84.5 72.5t101.5 26.5q52 0 78 -29q39 -44 52.5 -63t13.5 -32q0 -26 -8 -39q-22 -43 -49 -43q-28 0 -45 10q-34 44 -52 48q-14 0 -35 -27q-81 -114 -201 -414q-10 -35 -10 -43q0 -11 6 -11q38 0 201 239q75 109 138.5 172.5t93.5 73.5
q116 190 247 190q128 0 193 -127q20 -39 20 -82q0 -53 -30 -111q-174 -258 -332 -333l-12 -7q-11 -11 -11 -39t15 -68q13 -32 31 -32q81 0 219 101q80 59 129 100q48 49 77 49q12 0 29 -10q23 -23 23 -51q0 -29 -41 -97q-45 -66 -137 -135q-95 -69 -173 -80q-56 -4 -79 -4z
" />
    <glyph glyph-name="ccedilla" unicode="&#xe7;" horiz-adv-x="557" 
d="M101 -45q-54 31 -97 94q-37 53 -37 137q0 161 109 404q63 146 127 225q47 57 123 57q147 0 147 -92q0 -19 -10 -26q-11 -10 -64 -25q-67 -19 -114 -115q-111 -225 -111 -471q0 -63 45 -92q14 -8 27 -8q46 0 190 160q20 20 47 20h27q20 0 22 -24q-12 -97 -67 -170
q-63 -83 -173 -101q-9 -1 -14 -14v-2q0 -12 41 -28q137 -45 137 -156q0 -79 -70 -149q-67 -70 -157 -70q-53 0 -88 25q-38 26 -39 43q-1 4 -1 11q0 20 16 26q17 6 42 6h6q23 0 36 7q37 26 58 66q18 39 18 69q0 38 -33 43q-60 7 -87 24t-33 37q-6 21 -6 43v14q0 11 -3 18
q-5 9 -14 14z" />
    <glyph glyph-name="egrave" unicode="&#xe8;" horiz-adv-x="647" 
d="M209 356q55 39 102 129q74 136 74 168q0 17 -20 17q-14 0 -23 -11q-154 -263 -154 -282q0 -18 21 -21zM287 -74q-312 0 -312 289q0 17 13 121q9 93 86 246q138 270 293 270q127 0 192 -127q21 -41 21 -82q0 -51 -31 -111q-174 -259 -332 -333q-55 -28 -55 -56q0 -8 4 -24
q18 -66 74 -66q82 0 219 101q80 59 129 100q49 49 78 49q11 0 28 -10q23 -21 23 -51q0 -29 -41 -97q-45 -66 -137 -135q-94 -69 -172 -80q-58 -4 -80 -4zM546 839q-32 0 -59 29q-248 260 -261 282q-8 16 -8 29q0 11 10 33q23 34 68 34q106 0 238 -184q82 -119 82 -170
q0 -21 -23 -37q-22 -16 -47 -16z" />
    <glyph glyph-name="eacute" unicode="&#xe9;" horiz-adv-x="647" 
d="M209 356q55 39 102 129q74 136 74 168q0 17 -20 17q-14 0 -23 -11q-154 -263 -154 -282q0 -18 21 -21zM287 -74q-312 0 -312 289q0 17 13 121q9 93 86 246q138 270 293 270q127 0 192 -127q21 -41 21 -82q0 -51 -31 -111q-174 -259 -332 -333q-55 -28 -55 -56q0 -8 4 -24
q18 -66 74 -66q82 0 219 101q80 59 129 100q49 49 78 49q11 0 28 -10q23 -21 23 -51q0 -29 -41 -97q-45 -66 -137 -135q-94 -69 -172 -80q-58 -4 -80 -4zM214 845q-25 0 -47 16q-23 15 -23 37q0 51 82 170q132 184 238 184q45 0 67 -34q11 -24 11 -33q0 -14 -9 -29
q-10 -20 -260 -282q-27 -29 -59 -29z" />
    <glyph glyph-name="ecircumflex" unicode="&#xea;" horiz-adv-x="647" 
d="M209 356q55 39 102 129q74 136 74 168q0 17 -20 17q-14 0 -23 -11q-154 -263 -154 -282q0 -18 21 -21zM287 -74q-312 0 -312 289q0 17 13 121q9 93 86 246q138 270 293 270q127 0 192 -127q21 -41 21 -82q0 -51 -31 -111q-174 -259 -332 -333q-55 -28 -55 -56q0 -8 4 -24
q18 -66 74 -66q82 0 219 101q80 59 129 100q49 49 78 49q11 0 28 -10q23 -21 23 -51q0 -29 -41 -97q-45 -66 -137 -135q-94 -69 -172 -80q-58 -4 -80 -4zM202 833q-16 0 -39 12q-55 34 -55 71q0 22 25 56q77 104 143 207q43 67 121 79q130 -15 174 -141l12 -43
q23 -88 37 -110q12 -29 12 -41q0 -18 -12 -27q-17 -10 -26 -10q-31 0 -66 41q-49 45 -66 92q-21 84 -47 84q-28 0 -67 -74q-4 -5 -43 -70q-25 -36 -45 -71q-25 -55 -58 -55z" />
    <glyph glyph-name="edieresis" unicode="&#xeb;" horiz-adv-x="647" 
d="M209 356q55 39 102 129q74 136 74 168q0 17 -20 17q-14 0 -23 -11q-154 -263 -154 -282q0 -18 21 -21zM287 -74q-312 0 -312 289q0 17 13 121q9 93 86 246q138 270 293 270q127 0 192 -127q21 -41 21 -82q0 -51 -31 -111q-174 -259 -332 -333q-55 -28 -55 -56q0 -8 4 -24
q18 -66 74 -66q82 0 219 101q80 59 129 100q49 49 78 49q11 0 28 -10q23 -21 23 -51q0 -29 -41 -97q-45 -66 -137 -135q-94 -69 -172 -80q-58 -4 -80 -4zM231 865l-13 1q-81 23 -86 70v10q0 53 39 121l21 41q14 30 40 34h8q24 0 47 -13q46 -25 49 -68v-5q0 -28 -25 -98
q-37 -90 -80 -93zM503 909h-6q-72 0 -72 84q19 103 35 139q14 33 70 39q86 0 86 -92q0 -45 -29 -105q-26 -56 -84 -65z" />
    <glyph glyph-name="igrave" unicode="&#xec;" horiz-adv-x="291" 
d="M123 -117h-6q-106 0 -113 142v6q-4 60 -4 129q0 252 49 458q13 60 78 60q111 0 111 -88q0 -23 -5 -45q-51 -261 -63 -529q0 -22 6 -41q4 -15 4 -38q0 -11 -2 -33q-3 -17 -55 -21zM275 669q-32 0 -59 29q-248 260 -261 282q-8 16 -8 29q0 11 10 33q23 34 68 34
q106 0 238 -184q82 -119 82 -170q0 -21 -23 -37q-22 -16 -47 -16z" />
    <glyph glyph-name="iacute" unicode="&#xed;" horiz-adv-x="291" 
d="M123 -117h-6q-106 0 -113 142v6q-4 60 -4 129q0 252 49 458q13 60 78 60q111 0 111 -88q0 -23 -5 -45q-51 -261 -63 -529q0 -22 6 -41q4 -15 4 -38q0 -11 -2 -33q-3 -17 -55 -21zM27 671q-25 0 -47 16q-23 15 -23 37q0 51 82 170q132 184 238 184q45 0 67 -34
q11 -24 11 -33q0 -14 -9 -29q-10 -20 -260 -282q-27 -29 -59 -29z" />
    <glyph glyph-name="icircumflex" unicode="&#xee;" horiz-adv-x="291" 
d="M123 -117h-6q-106 0 -113 142v6q-4 60 -4 129q0 252 49 458q13 60 78 60q111 0 111 -88q0 -23 -5 -45q-51 -261 -63 -529q0 -22 6 -41q4 -15 4 -38q0 -11 -2 -33q-3 -17 -55 -21zM-34 633q-16 0 -39 12q-55 34 -55 71q0 22 25 56q77 104 143 207q43 67 121 79
q130 -15 174 -141l12 -43q23 -88 37 -110q12 -28 12 -41q0 -18 -12 -27q-17 -10 -26 -10q-31 0 -66 41q-49 45 -66 92q-21 84 -47 84q-28 0 -67 -74q-4 -5 -43 -70q-25 -36 -45 -71q-25 -55 -58 -55z" />
    <glyph glyph-name="idieresis" unicode="&#xef;" horiz-adv-x="322" 
d="M123 -117h-6q-106 0 -113 142v6q-4 60 -4 129q0 252 49 458q13 60 78 60q111 0 111 -88q0 -23 -5 -45q-51 -261 -63 -529q0 -22 6 -41q4 -15 4 -38q0 -11 -2 -33q-3 -17 -55 -21zM32 686l-13 1q-81 23 -86 70v10q0 49 39 121l21 41q14 30 40 34h8q25 0 47 -13
q46 -24 49 -68v-5q0 -30 -25 -98q-34 -88 -80 -93zM251 730h-6q-71 0 -72 84q20 108 35 139q15 33 70 39q86 0 86 -92q0 -45 -29 -105q-29 -58 -84 -65z" />
    <glyph glyph-name="eth" unicode="&#xf0;" horiz-adv-x="854" 
d="M490 671q-183 -35 -250 -333q-43 -182 -43 -301q0 -100 15 -100q11 0 21 40q66 211 166 422q59 127 112 258q4 8 4 14v2q-2 2 -5 2q-8 0 -20 -4zM813 931q-54 -218 -80 -627q-7 -126 -7 -195q0 -234 50 -305q25 -29 26 -39q0 -57 -92 -59q-61 0 -102 41q-51 49 -51 307
q0 92 8 234v12q0 20 -1 32q-2 15 -7 15q-4 0 -16 -13q-13 -15 -197 -486q-39 -98 -131 -98q-16 0 -34 3q-1 1 -5 1q-160 34 -178 197q0 431 235 786q58 88 144 88q45 0 101 -29q35 -20 50 -53q4 -12 8 -12h3q2 0 8 15q34 94 53 158q18 62 20 90v4q0 14 -9 14q-5 0 -11 -3
q-40 -12 -72 -31q-48 -30 -64 -30h-9q-9 0 -25 75q-2 20 -2 26q2 53 63 84q51 21 148 37q21 1 32 28q9 26 15 79q1 8 1 23q0 48 -22 88q-23 42 -56 47h-8q-33 0 -77 -29t-73 -72q-27 -39 -48 -39q-5 0 -13 1q-14 2 -35 20q-16 13 -16 50q0 21 9 75q7 53 116 94q42 16 114 16
q26 0 81 -4q61 -4 130 -60q93 -77 93 -215q0 -25 -3 -52q-1 -3 -1 -7q0 -14 13 -15q69 -2 102 -23q34 -22 34 -74v-3q-1 -63 -43 -63h-1q-15 0 -35 9q-18 8 -58 10q-34 0 -46 -27q-13 -31 -29 -96z" />
    <glyph glyph-name="ntilde" unicode="&#xf1;" horiz-adv-x="795" 
d="M168 -53q-28 0 -55 12q-110 46 -113 137q0 21 4 45q89 396 115 518q15 79 69 82q14 0 35 -6q83 -27 86 -88q0 -16 -10 -53q-43 -133 -43 -191q0 -22 8 -22q12 0 39 41q131 185 248 328q58 70 115 73q30 0 59 -16q67 -40 70 -127q0 -24 -7 -49q-94 -385 -94 -502
q0 -105 15 -119q4 -16 4 -22q0 -16 -17 -25q-15 -12 -34 -12q-44 0 -78 33q-79 65 -82 180q0 142 4 194q4 50 4 54q0 12 -4 12q-10 0 -225 -385q-52 -92 -113 -92zM533 830q-105 0 -182 53q-20 15 -47 15q-33 0 -56 -28q-14 -19 -31 -21h-7q-27 0 -43 18.5t-19 33t-3 24.5v4
q0 25 20 57q18 29 69 61q32 22 50 25q11 2 29 2q12 0 27 -6.5t24 -13.5l9 -6q27 -21 86 -52q41 -18 73 -18q64 0 98 85q25 25 45 25q25 0 45 -40q13 -28 13 -61q0 -3 -0.5 -9t-0.5 -10q-1 -19 -27 -55q-16 -21 -21 -25q-70 -58 -151 -58z" />
    <glyph glyph-name="ograve" unicode="&#xf2;" horiz-adv-x="557" 
d="M195 109q62 32 110 131q60 129 60 252q0 71 -29 131q-41 -36 -82 -138q-68 -175 -68 -311q0 -42 9 -65zM227 -66q-45 0 -106 33q-64 34 -101 125q-20 50 -20 115q0 102 51 264q53 167 119 285q41 71 111 71q115 0 131 -102q4 -19 28 -43q86 -82 86 -242q0 -34 -2 -86
q-3 -78 -65 -217q-61 -137 -162 -186q-39 -17 -70 -17zM461 805q-32 0 -59 29q-248 260 -261 282q-8 16 -8 29q0 11 10 33q23 34 68 34q106 0 238 -184q82 -119 82 -170q0 -21 -23 -37q-22 -16 -47 -16z" />
    <glyph glyph-name="oacute" unicode="&#xf3;" horiz-adv-x="557" 
d="M195 109q62 32 110 131q60 129 60 252q0 71 -29 131q-41 -36 -82 -138q-68 -175 -68 -311q0 -42 9 -65zM227 -66q-45 0 -106 33q-64 34 -101 125q-20 50 -20 115q0 102 51 264q53 167 119 285q41 71 111 71q115 0 131 -102q4 -19 28 -43q86 -82 86 -242q0 -34 -2 -86
q-3 -78 -65 -217q-61 -137 -162 -186q-39 -17 -70 -17zM148 806q-25 0 -47 16q-23 15 -23 37q0 51 82 170q132 184 238 184q45 0 67 -34q11 -24 11 -33q0 -14 -9 -29q-10 -20 -260 -282q-27 -29 -59 -29z" />
    <glyph glyph-name="ocircumflex" unicode="&#xf4;" horiz-adv-x="557" 
d="M195 109q62 32 110 131q60 129 60 252q0 71 -29 131q-41 -36 -82 -138q-68 -175 -68 -311q0 -42 9 -65zM227 -66q-45 0 -106 33q-64 34 -101 125q-20 50 -20 115q0 102 51 264q53 167 119 285q41 71 111 71q115 0 131 -102q4 -19 28 -43q86 -82 86 -242q0 -34 -2 -86
q-3 -78 -65 -217q-61 -137 -162 -186q-39 -17 -70 -17zM108 773q-16 0 -39 12q-55 34 -55 71q0 22 25 56q77 104 143 207q43 67 121 79q130 -15 174 -141l12 -43q23 -88 37 -110q12 -29 12 -41q0 -18 -12 -27q-17 -10 -26 -10q-31 0 -66 41q-49 45 -66 92q-21 84 -47 84
q-28 0 -67 -74q-4 -5 -43 -70q-25 -36 -45 -71q-25 -55 -58 -55z" />
    <glyph glyph-name="otilde" unicode="&#xf5;" horiz-adv-x="557" 
d="M195 109q62 32 110 131q60 129 60 252q0 71 -29 131q-41 -36 -82 -138q-68 -175 -68 -311q0 -42 9 -65zM227 -66q-45 0 -106 33q-64 34 -101 125q-20 50 -20 115q0 102 51 264q53 167 119 285q41 71 111 71q115 0 131 -102q4 -19 28 -43q86 -82 86 -242q0 -34 -2 -86
q-3 -78 -65 -217q-61 -137 -162 -186q-39 -17 -70 -17zM349 844q-61 0 -98 18q-38 16 -60 35l-1 2q-2 0 -4 2t-14 8q-9 3 -21 3q-11 0 -24 -6t-25 -22q-14 -20 -27 -21h-4q-18 0 -30 9t-18 24q-6 11 -8 27q0 2 -0.5 5t-1 5t-0.5 3.5v2.5v6q0 16 4 27q2 6 13 28q7 15 22 30
q16 16 38 31q27 22 44 25q18 2 25 2q10 0 18 -4q12 -6 17 -9q8 -5 12 -9q2 -2 3 -2l2 -2q20 -20 74 -52q33 -18 64 -18q24 0 46 19q23 18 39 66q21 25 39 25q20 0 39 -40q7 -15 8 -31q2 -9 2 -34v-15q0 -11 -5 -23q-1 -2 -16 -28q-2 -2 -2 -4l-4 -6q-7 -12 -15 -19
q-33 -32 -66 -45t-65 -13z" />
    <glyph glyph-name="odieresis" unicode="&#xf6;" horiz-adv-x="557" 
d="M195 109q62 32 110 131q60 129 60 252q0 71 -29 131q-41 -36 -82 -138q-68 -175 -68 -311q0 -42 9 -65zM227 -66q-45 0 -106 33q-64 34 -101 125q-20 50 -20 115q0 102 51 264q53 167 119 285q41 71 111 71q115 0 131 -102q4 -19 28 -43q86 -82 86 -242q0 -34 -2 -86
q-3 -78 -65 -217q-61 -137 -162 -186q-39 -17 -70 -17zM146 810l-13 1q-81 23 -86 70v10q0 53 39 121l21 41q14 30 40 34h8q24 0 47 -13q46 -25 49 -68v-5q0 -28 -25 -98q-37 -90 -80 -93zM418 854h-6q-72 0 -72 84q19 103 35 139q14 33 70 39q86 0 86 -92q0 -45 -29 -105
q-26 -56 -84 -65z" />
    <glyph glyph-name="divide" unicode="&#xf7;" horiz-adv-x="1085" 
d="M367 -115q-48 0 -54 25q-6 21 -6 39q0 78 94 162q33 28 54 55t47 27q35 0 84 -52q18 -18 18 -43l-2 -12q-89 -135 -207 -199zM88 256q-59 0 -88 45q-33 33 -33 57q0 41 62 52q387 133 780 145q70 0 160 -10q80 -12 86 -101q-3 -41 -41 -41l-103 3q-398 0 -764 -136
q-28 -14 -59 -14zM434 608q-55 9 -55 51q0 45 139 240q21 29 53 29q16 0 39 -10q70 -37 70 -99q-6 -29 -51 -78q-47 -49 -101 -88q-64 -43 -94 -45z" />
    <glyph glyph-name="oslash" unicode="&#xf8;" horiz-adv-x="557" 
d="M233 166l-1 -6q0 -15 9 -15q2 0 4 2q33 35 60 93q60 129 60 252q0 56 -19 108q-71 -241 -113 -434zM139 -358q-35 0 -51 2q-27 3 -57 28q-34 28 -37 76q0 152 29 281q3 15 3 27q0 20 -6 35q-20 48 -20 116q0 102 51 264q53 167 119 285q16 28 33 43q45 136 76 209
q23 69 88 75q98 0 98 -100q0 -34 -31 -117q-4 -11 -16.5 -44t-20.5 -54q13 -26 15 -43q4 -19 28 -43q86 -82 86 -242q0 -34 -2 -86q-3 -78 -65 -217q-61 -137 -162 -186q-40 -17 -63 -17h-9q-22 0 -35.5 -38.5t-13.5 -73.5q0 -56 23 -137q0 -40 -60 -43z" />
    <glyph glyph-name="ugrave" unicode="&#xf9;" horiz-adv-x="803" 
d="M625 -115h-29q-57 0 -90 23q-54 40 -57 164q-5 40 -11 49q-74 -84 -90 -105q-59 -68 -137 -71l-45 -2q-48 0 -105 45q-61 45 -61 129q0 64 23 233q21 169 79 305q46 120 123 123q85 -15 88 -76q0 -18 -4 -38q-5 -17 -57 -228q-51 -200 -51 -272q0 -25 8 -25q42 3 199 258
q144 239 186 330q26 59 88 64q26 0 55 -13q63 -23 66 -80q0 -28 -8 -51q-138 -392 -138 -598q0 -45 11 -80q8 -24 8 -47v-16q-3 -15 -51 -21zM494 765q-32 0 -59 29q-248 260 -261 282q-8 16 -8 29q0 11 10 33q23 34 68 34q106 0 238 -184q82 -119 82 -170q0 -21 -23 -37
q-22 -16 -47 -16z" />
    <glyph glyph-name="uacute" unicode="&#xfa;" horiz-adv-x="803" 
d="M625 -115h-29q-57 0 -90 23q-54 40 -57 164q-5 40 -11 49q-74 -84 -90 -105q-59 -68 -137 -71l-45 -2q-48 0 -105 45q-61 45 -61 129q0 64 23 233q21 169 79 305q46 120 123 123q85 -15 88 -76q0 -18 -4 -38q-5 -17 -57 -228q-51 -200 -51 -272q0 -25 8 -25q42 3 199 258
q144 239 186 330q26 59 88 64q26 0 55 -13q63 -23 66 -80q0 -28 -8 -51q-138 -392 -138 -598q0 -45 11 -80q8 -24 8 -47v-16q-3 -15 -51 -21zM417 756q-25 0 -47 16q-23 15 -23 37q0 51 82 170q132 184 238 184q45 0 67 -34q11 -24 11 -33q0 -14 -9 -29q-10 -20 -260 -282
q-27 -29 -59 -29z" />
    <glyph glyph-name="ucircumflex" unicode="&#xfb;" horiz-adv-x="803" 
d="M625 -115h-29q-57 0 -90 23q-54 40 -57 164q-5 40 -11 49q-74 -84 -90 -105q-59 -68 -137 -71l-45 -2q-48 0 -105 45q-61 45 -61 129q0 64 23 233q21 169 79 305q46 120 123 123q85 -15 88 -76q0 -18 -4 -38q-5 -17 -57 -228q-51 -200 -51 -272q0 -25 8 -25q42 3 199 258
q144 239 186 330q26 59 88 64q26 0 55 -13q63 -23 66 -80q0 -28 -8 -51q-138 -392 -138 -598q0 -45 11 -80q8 -24 8 -47v-16q-3 -15 -51 -21zM307 790q-17 0 -39 12q-55 34 -55 71q0 22 25 56q77 104 143 207q43 67 121 79q130 -15 174 -141l12 -43q23 -88 37 -110
q12 -29 12 -41q0 -18 -12 -27q-17 -10 -26 -10q-31 0 -66 41q-49 45 -66 92q-21 84 -47 84q-28 0 -67 -74q-4 -5 -43 -70q-25 -36 -45 -71q-25 -55 -58 -55z" />
    <glyph glyph-name="udieresis" unicode="&#xfc;" horiz-adv-x="803" 
d="M625 -115h-29q-57 0 -90 23q-54 40 -57 164q-5 40 -11 49q-74 -84 -90 -105q-59 -68 -137 -71l-45 -2q-48 0 -105 45q-61 45 -61 129q0 64 23 233q21 169 79 305q46 120 123 123q85 -15 88 -76q0 -18 -4 -38q-5 -17 -57 -228q-51 -200 -51 -272q0 -25 8 -25q42 3 199 258
q144 239 186 330q26 59 88 64q26 0 55 -13q63 -23 66 -80q0 -28 -8 -51q-138 -392 -138 -598q0 -45 11 -80q8 -24 8 -47v-16q-3 -15 -51 -21zM376 796l-13 1q-81 23 -86 70v10q0 53 39 121l21 41q14 30 40 34h8q24 0 47 -13q46 -25 49 -68v-5q0 -28 -25 -98q-37 -90 -80 -93
zM648 840h-6q-72 0 -72 84q19 103 35 139q14 33 70 39q86 0 86 -92q0 -45 -29 -105q-26 -56 -84 -65z" />
    <glyph glyph-name="yacute" unicode="&#xfd;" horiz-adv-x="707" 
d="M573 -563q-24 0 -49 10q-89 38 -123 111t-34 231q0 68 10 231q0 91 -4 91q-5 0 -23 -27q-72 -90 -162 -90q-25 0 -57 10q-131 52 -131 189q0 528 94 534l25 -2q104 -3 104 -115q-8 -149 -8 -258q0 -108 16 -108q28 3 119 186q57 111 139 260q37 64 99 64q28 0 49 -9
q70 -27 70 -96q0 -19 -5 -37q-31 -99 -77 -323q-62 -301 -62 -506q0 -172 62 -246q18 -20 22 -41q0 -14 -14 -28q-28 -28 -60 -31zM290 728q-25 0 -47 16q-23 15 -23 37q0 51 82 170q132 184 238 184q45 0 67 -34q11 -24 11 -33q0 -14 -9 -29q-10 -20 -260 -282
q-27 -29 -59 -29z" />
    <glyph glyph-name="thorn" unicode="&#xfe;" horiz-adv-x="807" 
d="M336 168q2 2 10 6q61 20 174 229q58 107 58 160q0 35 -21 35q-52 0 -182 -244q-74 -139 -74 -157q0 -11 2 -17q0 -9 33 -12zM61 -618q-119 0 -122 116q35 348 116.5 792t188.5 874q18 70 74 70q14 0 32 -6q66 -18 66 -78q0 -21 -135 -634q0 -16 8 -16q21 0 123 141
q76 110 163 113q43 0 95 -25q72 -35 75 -121q0 -32 -6 -65q-36 -236 -198 -406q-64 -67 -148 -67q-40 0 -78 14q-16 8 -32 8l-21 -2q-19 -3 -96 -309q-35 -146 -35 -248l2 -72q0 -25 -6 -53q-6 -26 -66 -26z" />
    <glyph glyph-name="ydieresis" unicode="&#xff;" horiz-adv-x="707" 
d="M573 -563q-24 0 -49 10q-89 38 -123 111t-34 231q0 68 10 231q0 91 -4 91q-5 0 -23 -27q-72 -90 -162 -90q-25 0 -57 10q-131 52 -131 189q0 528 94 534l25 -2q104 -3 104 -115q-8 -149 -8 -258q0 -108 16 -108q28 3 119 186q57 111 139 260q37 64 99 64q28 0 49 -9
q70 -27 70 -96q0 -19 -5 -37q-31 -99 -77 -323q-62 -301 -62 -506q0 -172 62 -246q18 -20 22 -41q0 -14 -14 -28q-28 -28 -60 -31zM278 751l-13 1q-81 23 -86 70v10q0 53 39 121l21 41q14 30 40 34h8q24 0 47 -13q46 -25 49 -68v-5q0 -28 -25 -98q-37 -90 -80 -93zM550 795
h-6q-72 0 -72 84q19 103 35 139q14 33 70 39q86 0 86 -92q0 -45 -29 -105q-26 -56 -84 -65z" />
    <glyph glyph-name="Amacron" unicode="&#x100;" horiz-adv-x="745" 
d="M262 393q22 0 49 6q73 16 82 72l10 66q37 188 37 270q0 35 -8 35q-17 0 -137 -240q-74 -154 -74 -192q0 -17 41 -17zM625 -385q-47 0 -86 41q-68 74 -97 188q-26 100 -45 217q-12 81 -24 127q-17 48 -37 48q-97 0 -158 -21q-60 -20 -82 -109q-7 -32 -10 -75
q-21 -167 -47 -185q-15 -12 -37 -12q-32 0 -68 27q-69 44 -69 116q0 32 16 74q15 41 15 62q0 22 -23 22q-19 0 -78 -24q-55 -27 -76 -27q-32 0 -59 37q-31 34 -31 80q0 45 54 73q53 26 135 41q145 32 192 76l430 899q56 109 164 109q40 0 82 -13q72 -25 72 -73
q0 -47 -21 -107q-159 -590 -159 -954q0 -378 96 -541q20 -31 20 -47t-22 -33q-24 -16 -47 -16zM843 1519q0 -3 -0.5 -8.5t-4.5 -20t-9.5 -25.5t-17 -20t-26.5 -9q-96 16 -165 16q-16 0 -44 -2q-54 -3 -114 -18q-21 -9 -39 -9t-23 10q-15 21 -35 81q-2 8 -2 18q0 60 46 73
q77 20 141 20h56q67 0 121 -8q5 0 12.5 -1t27.5 -7t35.5 -15t28 -26.5t12.5 -40.5v-8z" />
    <glyph glyph-name="amacron" unicode="&#x101;" horiz-adv-x="715" 
d="M602 -10q-11 0 -29 4q-161 52 -161 242q0 67 -15 67q-3 0 -100 -125q-63 -80 -107 -129q-51 -59 -104 -59q-38 0 -80 22q-84 47 -84 144q0 22 6 51q53 258 246 512q80 104 166 104q55 0 96 -32q43 -34 43 -60t-8 -39q-21 -43 -49 -43t-45 10q-13 9 -29 13q-10 0 -33 -29
q-83 -112 -176 -356q-12 -31 -12 -43q0 -11 6 -11q31 0 176 183q186 231 226 243q20 7 38 7q15 0 27 -4q57 -31 57 -117q0 -31 -10 -76q-37 -154 -37 -262q0 -81 35 -162q8 -13 8 -27q0 -28 -51 -28zM688 938q0 -3 -0.5 -8.5t-4.5 -20t-9.5 -25.5t-17 -20t-26.5 -9
q-96 16 -165 16q-16 0 -44 -2q-54 -3 -114 -18q-21 -9 -39 -9t-23 10q-15 21 -35 81q-2 8 -2 18q0 60 46 73q77 20 141 20h56q67 0 121 -8q5 0 12.5 -1t27.5 -7t35.5 -15t28 -26.5t12.5 -40.5v-8z" />
    <glyph glyph-name="Abreve" unicode="&#x102;" horiz-adv-x="745" 
d="M262 393q22 0 49 6q73 16 82 72l10 66q37 188 37 270q0 35 -8 35q-17 0 -137 -240q-74 -154 -74 -192q0 -17 41 -17zM625 -385q-47 0 -86 41q-68 74 -97 188q-26 100 -45 217q-12 81 -24 127q-17 48 -37 48q-97 0 -158 -21q-60 -20 -82 -109q-7 -32 -10 -75
q-21 -167 -47 -185q-15 -12 -37 -12q-32 0 -68 27q-69 44 -69 116q0 32 16 74q15 41 15 62q0 22 -23 22q-19 0 -78 -24q-55 -27 -76 -27q-32 0 -59 37q-31 34 -31 80q0 45 54 73q53 26 135 41q145 32 192 76l430 899q56 109 164 109q40 0 82 -13q72 -25 72 -73
q0 -47 -21 -107q-159 -590 -159 -954q0 -378 96 -541q20 -31 20 -47t-22 -33q-24 -16 -47 -16zM638 1422q-98 0 -161 28.5t-83 75.5q-19 32 -19 77q0 39 30 73q10 8 19 8q11 0 28 -6t17 -14v-1q1 -2 2.5 -6.5t11.5 -15.5t25 -20.5t45 -18.5t69 -12q31 0 59.5 16t45.5 36.5
t27 37.5t10 23q8 23 53 23q12 0 24 -3q27 -6 27 -65q-1 -103 -62 -164q-70 -72 -168 -72z" />
    <glyph glyph-name="abreve" unicode="&#x103;" horiz-adv-x="715" 
d="M602 -10q-11 0 -29 4q-161 52 -161 242q0 67 -15 67q-3 0 -100 -125q-63 -80 -107 -129q-51 -59 -104 -59q-38 0 -80 22q-84 47 -84 144q0 22 6 51q53 258 246 512q80 104 166 104q55 0 96 -32q43 -34 43 -60t-8 -39q-21 -43 -49 -43t-45 10q-13 9 -29 13q-10 0 -33 -29
q-83 -112 -176 -356q-12 -31 -12 -43q0 -11 6 -11q31 0 176 183q186 231 226 243q20 7 38 7q15 0 27 -4q57 -31 57 -117q0 -31 -10 -76q-37 -154 -37 -262q0 -81 35 -162q8 -13 8 -27q0 -28 -51 -28zM465 844q-98 0 -161 28.5t-83 75.5q-19 32 -19 77q0 39 30 73q10 8 19 8
q11 0 28 -6t17 -14v-1q1 -2 2.5 -6.5t11.5 -15.5t25 -20.5t45 -18.5t69 -12q31 0 59.5 16t45.5 36.5t27 37.5t10 23q8 23 53 23q12 0 24 -3q27 -6 27 -65q-1 -103 -62 -164q-71 -72 -168 -72z" />
    <glyph glyph-name="Aogonek" unicode="&#x104;" horiz-adv-x="741" 
d="M262 393q22 0 49 6q75 17 82 72l10 66q37 188 37 270q0 33 -8 35q-18 0 -137 -240q-74 -153 -74 -192q0 -15 41 -17zM483 -264q-26 50 -41 108q-30 115 -45 217q-12 77 -24 127q-17 48 -37 48q-95 0 -158 -21q-61 -19 -82 -109q-5 -24 -10 -75q-22 -169 -47 -185
q-15 -12 -37 -12q-30 0 -68 27q-69 47 -69 116q0 35 16 74q15 41 15 62q0 20 -23 22q-18 0 -78 -24q-60 -27 -76 -27q-31 0 -59 37q-31 34 -31 80t54 73q54 26 135 41q145 32 192 76l430 899q57 109 164 109q42 0 82 -13q72 -24 72 -73q0 -43 -21 -107q-159 -590 -159 -954
q0 -378 96 -541q20 -32 20 -47t-22 -33q-22 -16 -47 -16q-10 0 -15 1q-17 -10 -36 -32q-26 -28 -57 -90q-13 -27 -13 -55q0 -30 11 -58q10 -27 23 -44q12 -17 17 -20q7 -7 7 -21q0 -25 -23 -57q-7 -10 -23 -10t-47 14q-94 46 -120 128q-15 41 -15 84q0 58 25 127
q35 94 91 134q22 14 33 20z" />
    <glyph glyph-name="aogonek" unicode="&#x105;" horiz-adv-x="715" 
d="M412 236q0 67 -15 67q-2 0 -100 -125q-63 -80 -107 -129q-53 -59 -104 -59q-40 0 -80 22q-84 48 -84 144q0 24 6 51q52 255 246 512q80 104 166 104q52 0 96 -32q43 -34 43 -60q0 -23 -8 -39q-21 -43 -49 -43q-29 0 -45 10t-29 13q-12 0 -33 -29q-86 -117 -176 -356
q-12 -31 -12 -43q0 -10 6 -11q31 0 176 183q184 231 226 243q21 7 38 7q18 0 27 -4q57 -32 57 -117q0 -39 -10 -76q-37 -147 -37 -262q0 -81 35 -162q8 -18 8 -27q0 -26 -51 -28q-17 0 -29 4q-18 5 -27 5q-11 0 -20 -9q-13 -13 -31 -39q-20 -31 -35 -62q-13 -27 -13 -56
q0 -13 6 -38q4 -25 22 -52q17 -27 23 -31q16 -9 18 -36v-4q0 -25 -23 -42q-11 -8 -26 -8q-23 0 -55 16q-94 46 -120 128q-15 39 -15 84q0 59 25 127q34 94 92 135q19 13 19 38v14q-1 9 -1 72z" />
    <glyph glyph-name="Cacute" unicode="&#x106;" horiz-adv-x="973" 
d="M264 -358q-282 0 -282 335q33 723 503 1276q71 78 160 78q21 0 53 -2q49 -3 99 -86q24 -43 24 -102q0 -27 -6 -62q-27 -118 -92 -118q-31 0 -37 26q-6 29 -6 57q0 33 -2 58q-3 35 -23 35q-47 0 -112 -99q-232 -335 -305 -719q-39 -192 -39 -325q0 -118 34 -172
q16 -33 78 -33q131 0 480 256l26 25q39 41 66 41q12 0 37 -15q23 -14 26 -33q0 -56 -67 -133q-74 -81 -224 -166q-150 -87 -315 -114q-36 -8 -76 -8zM464 1329q-25 0 -47 16q-23 15 -23 37q0 51 82 170q132 184 238 184q45 0 67 -34q11 -24 11 -33q0 -14 -9 -29
q-10 -20 -260 -282q-27 -29 -59 -29z" />
    <glyph glyph-name="cacute" unicode="&#x107;" horiz-adv-x="557" 
d="M223 -78q-133 0 -219 127q-37 54 -37 137q0 159 109 404q62 144 127 225q44 57 123 57q147 0 147 -92q0 -16 -10 -26q-14 -11 -64 -25q-70 -22 -114 -115q-111 -224 -111 -471q0 -64 45 -92q13 -8 27 -8q46 0 190 160q19 20 47 20h27q22 0 22 -24q-12 -97 -67 -170
q-82 -107 -242 -107zM126 823q-25 0 -47 16q-23 15 -23 37q0 51 82 170q132 184 238 184q45 0 67 -34q11 -24 11 -33q0 -14 -9 -29q-10 -20 -260 -282q-27 -29 -59 -29z" />
    <glyph glyph-name="Cdotaccent" unicode="&#x10a;" horiz-adv-x="973" 
d="M264 -358q-282 0 -282 335q33 723 503 1276q71 78 160 78q21 0 53 -2q49 -3 99 -86q24 -43 24 -102q0 -27 -6 -62q-27 -118 -92 -118q-31 0 -37 26q-6 29 -6 57q0 33 -2 58q-3 35 -23 35q-47 0 -112 -99q-232 -335 -305 -719q-39 -192 -39 -325q0 -118 34 -172
q16 -33 78 -33q131 0 480 256l26 25q39 41 66 41q12 0 37 -15q23 -14 26 -33q0 -56 -67 -133q-74 -81 -224 -166q-150 -87 -315 -114q-36 -8 -76 -8zM713 1368q-116 3 -116 123q0 123 108 123q56 0 92 -21q31 -15 31 -47q-7 -42 -8 -53q-6 -44 -25 -84q-21 -41 -82 -41z" />
    <glyph glyph-name="cdotaccent" unicode="&#x10b;" horiz-adv-x="557" 
d="M223 -78q-133 0 -219 127q-37 54 -37 137q0 159 109 404q62 144 127 225q44 57 123 57q147 0 147 -92q0 -16 -10 -26q-14 -11 -64 -25q-70 -22 -114 -115q-111 -224 -111 -471q0 -64 45 -92q13 -8 27 -8q46 0 190 160q19 20 47 20h27q22 0 22 -24q-12 -97 -67 -170
q-82 -107 -242 -107zM339 898q-116 3 -116 123q0 123 108 123q56 0 92 -21q31 -15 31 -47q-7 -42 -8 -53q-6 -44 -25 -84q-21 -41 -82 -41z" />
    <glyph glyph-name="Ccaron" unicode="&#x10c;" horiz-adv-x="973" 
d="M264 -358q-282 0 -282 335q33 723 503 1276q71 78 160 78q21 0 53 -2q49 -3 99 -86q24 -43 24 -102q0 -27 -6 -62q-27 -118 -92 -118q-31 0 -37 26q-6 29 -6 57q0 33 -2 58q-3 35 -23 35q-47 0 -112 -99q-232 -335 -305 -719q-39 -192 -39 -325q0 -118 34 -172
q16 -33 78 -33q131 0 480 256l26 25q39 41 66 41q12 0 37 -15q23 -14 26 -33q0 -56 -67 -133q-74 -81 -224 -166q-150 -87 -315 -114q-36 -8 -76 -8zM681 1368q-38 0 -78 26q-142 102 -142 266q0 14 4 56q5 28 37 28q19 0 39 -10q80 -46 80 -110q0 -9 -4 -25t-4 -22
q0 -21 18 -33q10 -6 17 -6q18 0 35 18q3 0 20 14q60 46 102 93q29 34 56 34t61 -28q33 -27 33 -54l-2 -20q-6 -37 -129 -143q-82 -84 -143 -84z" />
    <glyph glyph-name="ccaron" unicode="&#x10d;" horiz-adv-x="557" 
d="M223 -78q-133 0 -219 127q-37 54 -37 137q0 159 109 404q62 144 127 225q44 57 123 57q147 0 147 -92q0 -16 -10 -26q-14 -11 -64 -25q-70 -22 -114 -115q-111 -224 -111 -471q0 -64 45 -92q13 -8 27 -8q46 0 190 160q19 20 47 20h27q22 0 22 -24q-12 -97 -67 -170
q-82 -107 -242 -107zM286 901q-38 0 -78 26q-142 102 -142 266q0 14 4 56q5 28 37 28q19 0 39 -10q80 -46 80 -110q0 -9 -4 -25t-4 -22q0 -21 18 -33q11 -6 17 -6q19 0 35 18q3 0 20 14q60 46 102 93q29 34 56 34t61 -28q33 -27 33 -54l-2 -20q-6 -37 -129 -143
q-83 -84 -143 -84z" />
    <glyph glyph-name="Dcaron" unicode="&#x10e;" horiz-adv-x="909" 
d="M203 -16q67 3 243 356q117 229 209 463q115 297 115 409q0 142 -154 142q-78 -3 -139 -31q-58 -30 -67 -74q-88 -404 -111 -491q-88 -331 -123 -670q3 -104 27 -104zM100 -231q-36 0 -69 18q-47 27 -47 174q0 129 34 344q48 290 88 455q33 129 33 166q0 40 -49 55
q-50 15 -53 72q0 10 4 30q65 234 360 340q138 52 244 52q121 0 201 -68q69 -63 69 -231q0 -46 -8 -158q-9 -131 -102 -369q-101 -257 -230 -456q-135 -216 -278 -332q-113 -92 -197 -92zM618 1494q-38 0 -78 26q-142 102 -142 266q0 14 4 56q5 28 37 28q19 0 39 -10
q80 -46 80 -110q0 -9 -4 -25t-4 -22q0 -21 18 -33q10 -6 17 -6q19 0 35 18q3 0 20 14q60 46 102 93q29 34 56 34t61 -28q33 -27 33 -54l-2 -20q-6 -37 -129 -143q-83 -84 -143 -84z" />
    <glyph glyph-name="dcaron" unicode="&#x10f;" horiz-adv-x="1267" 
d="M188 4q17 0 64 139q60 181 139 387q92 243 92 301q0 25 -12 25q-14 0 -47 -35q-254 -278 -254 -745v-47q0 -25 18 -25zM745 -588h-4q-77 0 -145 189q-66 181 -66 477q0 339 11 436q0 12 -4 12q-8 0 -29 -65q-143 -439 -158 -479q-64 -181 -160 -181q-137 0 -174 148
q-20 79 -20 184q0 386 237 748q72 103 189 106q117 0 151 78q36 79 74 209l92 309q29 89 74 92q21 0 45 -4q83 -21 86 -80q0 -42 -35 -164q-92 -311 -131 -471q-84 -341 -84 -788q0 -107 2 -272q0 -250 103 -408q24 -15 24 -43q0 -30 -78 -33zM964 1217q-24 0 -39 21
q-6 9 -6 20q0 15 14 35q75 101 115 268q0 22 -8 41q-11 24 -11 39q0 27 43 27q147 0 162 -147q0 -84 -72 -179q-94 -125 -198 -125z" />
    <glyph glyph-name="Dcroat" unicode="&#x110;" horiz-adv-x="909" 
d="M90 981q-50 17 -53 72q0 17 4 30q63 232 360 340q135 52 244 52q119 0 201 -68q69 -61 69 -231q0 -22 -8 -158q-7 -126 -102 -369q-94 -241 -230 -456q-134 -216 -278 -332q-115 -92 -197 -92q-38 0 -69 18q-47 27 -47 174q0 181 78 550v4q0 11 -13 11q-22 0 -84 -32
q-40 -26 -61 -26h-4q-11 3 -15 94v31q7 63 66 90q44 21 109 34q21 4 36 19q14 14 18 34q25 128 25 156q0 40 -49 55zM381 725q41 -9 67 -29q25 -36 25 -82q0 -7 -2 -25q-7 -69 -40 -69l-6 1q-13 3 -27 17q-18 12 -52 20q-15 3 -28 3q-18 0 -44 -8q-24 -7 -28 -29
q-44 -200 -70 -436q2 -104 27 -104q64 3 243 356q114 224 209 463q115 294 115 409q0 142 -154 142q-82 -3 -139 -31q-58 -31 -67 -74q-86 -404 -111 -491q-1 -2 -1 -6q0 -14 25 -17q28 -4 58 -10z" />
    <glyph glyph-name="dcroat" unicode="&#x111;" horiz-adv-x="809" 
d="M188 4q17 0 64 139q60 181 139 387q92 243 92 301q0 25 -12 25q-14 0 -47 -35q-254 -278 -254 -745v-47q0 -25 18 -25zM873 1306q-63 -218 -95 -350q-84 -333 -84 -788l2 -272q0 -253 103 -408q24 -15 24 -43q0 -31 -78 -33h-4q-76 0 -145 189q-66 179 -66 477
q0 353 11 436q0 12 -4 12q-6 0 -29 -65l-48 -148q-78 -244 -110 -331q-64 -181 -160 -181q-138 0 -174 148q-20 85 -20 184q0 389 237 748q71 105 189 106q116 0 151 78q31 68 74 209l8 28q3 10 3 17q0 15 -13 15q-3 0 -11 -2q-75 -21 -105 -35q-39 -18 -53 -18q-5 0 -9 1
q-5 1 -10 29q-2 15 -4 51q0 12 2 26q7 51 64 71q91 28 172 33q22 3 31 35l17 58q29 89 74 92q30 0 45 -4q83 -21 86 -80q0 -29 -15 -90l-1 -5q0 -7 8 -15q6 -6 24 -11q42 -11 64 -29q22 -29 22 -69q0 -7 -2 -23q-9 -55 -37 -55q-5 0 -8 1q-13 3 -25 16q-20 14 -50 21
q-7 2 -19 2q-4 0 -16 -2q-10 -3 -16 -26z" />
    <glyph glyph-name="Emacron" unicode="&#x112;" horiz-adv-x="842" 
d="M319 -207q-59 0 -102 12q-194 72 -209 295q-3 150 -10 162q-8 14 -35 14q-45 -5 -90 -16q-24 -6 -45 -6q-31 0 -45 14q-43 34 -43 88q0 51 92 66q133 18 184 106q21 24 68 207q41 166 41 199q-3 35 -84 35h-27q-23 0 -39 26q-15 29 -18 58q0 48 59 69q34 13 62 21
q58 15 104 47q47 27 74 98q24 70 104 70q74 0 74 -39l-2 -12q-8 -31 -8 -45q0 -31 57 -31q195 29 293 29q76 0 123 -15q63 -22 66 -84q0 -51 -39 -51q-530 0 -582 -117q-8 -33 -35 -96q-80 -213 -80 -287q0 -55 74 -55q28 0 121 18q117 27 229 27q180 0 189 -117
q0 -50 -60 -53q-61 0 -184 8q-130 0 -254 -37q-112 -32 -143 -79q-19 -28 -19 -76q0 -323 88 -326q114 0 232 103q28 22 49 22q17 0 37 -18q16 -21 16 -41q0 -90 -166 -166q-49 -24 -117 -27zM769 1510q0 -3 -0.5 -8.5t-4.5 -20t-9.5 -25.5t-17 -20t-26.5 -9q-96 16 -165 16
q-16 0 -44 -2q-54 -3 -114 -18q-21 -9 -39 -9t-23 10q-15 21 -35 81q-2 8 -2 18q0 60 46 73q77 20 141 20h56q67 0 121 -8q5 0 12.5 -1t27.5 -7t35.5 -15t28 -26.5t12.5 -40.5v-8z" />
    <glyph glyph-name="emacron" unicode="&#x113;" horiz-adv-x="647" 
d="M209 356q55 39 102 129q74 136 74 168q0 17 -20 17q-14 0 -23 -11q-154 -263 -154 -282q0 -18 21 -21zM287 -74q-312 0 -312 289q0 17 13 121q9 93 86 246q138 270 293 270q127 0 192 -127q21 -41 21 -82q0 -51 -31 -111q-174 -259 -332 -333q-55 -28 -55 -56q0 -8 4 -24
q18 -66 74 -66q82 0 219 101q80 59 129 100q49 49 78 49q11 0 28 -10q23 -21 23 -51q0 -29 -41 -97q-45 -66 -137 -135q-94 -69 -172 -80q-58 -4 -80 -4zM591 963q0 -3 -0.5 -8.5t-4.5 -20t-9.5 -25.5t-17 -20t-26.5 -9q-96 16 -165 16q-16 0 -44 -2q-54 -3 -114 -18
q-21 -9 -39 -9t-23 10q-15 21 -35 81q-2 8 -2 18q0 60 46 73q77 20 141 20h56q67 0 121 -8q5 0 12.5 -1t27.5 -7t35.5 -15t28 -26.5t12.5 -40.5v-8z" />
    <glyph glyph-name="Ebreve" unicode="&#x114;" horiz-adv-x="842" 
d="M319 -207q-59 0 -102 12q-194 72 -209 295q-3 150 -10 162q-8 14 -35 14q-45 -5 -90 -16q-24 -6 -45 -6q-31 0 -45 14q-43 34 -43 88q0 51 92 66q133 18 184 106q21 24 68 207q41 166 41 199q-3 35 -84 35h-27q-23 0 -39 26q-15 29 -18 58q0 48 59 69q34 13 62 21
q58 15 104 47q47 27 74 98q24 70 104 70q74 0 74 -39l-2 -12q-8 -31 -8 -45q0 -31 57 -31q195 29 293 29q76 0 123 -15q63 -22 66 -84q0 -51 -39 -51q-530 0 -582 -117q-8 -33 -35 -96q-80 -213 -80 -287q0 -55 74 -55q28 0 121 18q117 27 229 27q180 0 189 -117
q0 -50 -60 -53q-61 0 -184 8q-130 0 -254 -37q-112 -32 -143 -79q-19 -28 -19 -76q0 -323 88 -326q114 0 232 103q28 22 49 22q17 0 37 -18q16 -21 16 -41q0 -90 -166 -166q-49 -24 -117 -27zM536 1379q-98 0 -161 28.5t-83 75.5q-19 32 -19 77q0 39 30 73q10 8 19 8
q11 0 28 -6t17 -14v-1q1 -2 2.5 -6.5t11.5 -15.5t25 -20.5t45 -18.5t69 -12q31 0 59.5 16t45.5 36.5t27 37.5t10 23q8 23 53 23q12 0 24 -3q27 -6 27 -65q-1 -103 -62 -164q-70 -72 -168 -72z" />
    <glyph glyph-name="ebreve" unicode="&#x115;" horiz-adv-x="647" 
d="M209 356q55 39 102 129q74 136 74 168q0 17 -20 17q-14 0 -23 -11q-154 -263 -154 -282q0 -18 21 -21zM287 -74q-312 0 -312 289q0 17 13 121q9 93 86 246q138 270 293 270q127 0 192 -127q21 -41 21 -82q0 -51 -31 -111q-174 -259 -332 -333q-55 -28 -55 -56q0 -8 4 -24
q18 -66 74 -66q82 0 219 101q80 59 129 100q49 49 78 49q11 0 28 -10q23 -21 23 -51q0 -29 -41 -97q-45 -66 -137 -135q-94 -69 -172 -80q-58 -4 -80 -4zM369 879q-98 0 -161 28.5t-83 75.5q-19 32 -19 77q0 39 30 73q10 8 19 8q11 0 28 -6t17 -14v-1q1 -2 2.5 -6.5
t11.5 -15.5t25 -20.5t45 -18.5t69 -12q31 0 59.5 16t45.5 36.5t27 37.5t10 23q8 23 53 23q12 0 24 -3q27 -6 27 -65q-1 -103 -62 -164q-71 -72 -168 -72z" />
    <glyph glyph-name="Edotaccent" unicode="&#x116;" horiz-adv-x="842" 
d="M319 -207q-59 0 -102 12q-194 72 -209 295q-3 150 -10 162q-8 14 -35 14q-45 -5 -90 -16q-24 -6 -45 -6q-31 0 -45 14q-43 34 -43 88q0 51 92 66q133 18 184 106q21 24 68 207q41 166 41 199q-3 35 -84 35h-27q-23 0 -39 26q-15 29 -18 58q0 48 59 69q34 13 62 21
q58 15 104 47q47 27 74 98q24 70 104 70q74 0 74 -39l-2 -12q-8 -31 -8 -45q0 -31 57 -31q195 29 293 29q76 0 123 -15q63 -22 66 -84q0 -51 -39 -51q-530 0 -582 -117q-8 -33 -35 -96q-80 -213 -80 -287q0 -55 74 -55q28 0 121 18q117 27 229 27q180 0 189 -117
q0 -50 -60 -53q-61 0 -184 8q-130 0 -254 -37q-112 -32 -143 -79q-19 -28 -19 -76q0 -323 88 -326q114 0 232 103q28 22 49 22q17 0 37 -18q16 -21 16 -41q0 -90 -166 -166q-49 -24 -117 -27zM595 1371q-116 3 -116 123q0 123 108 123q56 0 92 -21q31 -15 31 -47
q-7 -42 -8 -53q-6 -44 -25 -84q-21 -41 -82 -41z" />
    <glyph glyph-name="edotaccent" unicode="&#x117;" horiz-adv-x="647" 
d="M209 356q55 39 102 129q74 136 74 168q0 17 -20 17q-14 0 -23 -11q-154 -263 -154 -282q0 -18 21 -21zM287 -74q-312 0 -312 289q0 17 13 121q9 93 86 246q138 270 293 270q127 0 192 -127q21 -41 21 -82q0 -51 -31 -111q-174 -259 -332 -333q-55 -28 -55 -56q0 -8 4 -24
q18 -66 74 -66q82 0 219 101q80 59 129 100q49 49 78 49q11 0 28 -10q23 -21 23 -51q0 -29 -41 -97q-45 -66 -137 -135q-94 -69 -172 -80q-58 -4 -80 -4zM397 901q-116 3 -116 123q0 123 108 123q56 0 92 -21q31 -15 31 -47q-7 -42 -8 -53q-6 -44 -25 -84q-21 -41 -82 -41z
" />
    <glyph glyph-name="Eogonek" unicode="&#x118;" horiz-adv-x="842" 
d="M500 23q26 22 49 22q17 0 37 -18q16 -19 16 -41q0 -90 -166 -166q-33 -16 -59 -22q-25 -8 -37 -19q-13 -13 -31 -39q-20 -31 -35 -62q-13 -27 -13 -56q0 -12 6 -38q4 -25 22 -52q17 -27 23 -31q24 -14 25 -39v-3q0 -24 -26 -41q-11 -7 -28 -7q-25 0 -57 16
q-94 46 -120 128q-15 39 -15 84q0 59 25 127q15 41 15 62v2q0 20 -15 33q-98 81 -108 237q-1 145 -10 162q-8 14 -35 14q-23 -1 -90 -16q-24 -6 -45 -6q-28 0 -45 14q-43 36 -43 88t92 66q132 18 184 106q21 24 68 207q41 167 41 199q-2 35 -84 35h-27q-21 0 -39 26
q-15 27 -18 58q0 46 59 69q34 13 62 21q59 17 104 47q46 28 74 98q25 70 104 70q74 0 74 -39l-2 -12q-8 -38 -8 -45q0 -31 57 -31q182 29 293 29q76 0 123 -15q61 -19 66 -84q0 -51 -38 -51h-1q-532 0 -582 -117q-12 -45 -35 -96q-80 -214 -80 -287q0 -55 74 -55
q28 0 121 18q122 27 229 27q179 0 189 -117q0 -49 -60 -53q-37 0 -184 8q-131 0 -254 -37q-114 -33 -143 -79q-19 -29 -19 -76q0 -285 69 -321q13 -7 33 -7q30 0 88 21q60 23 130 84z" />
    <glyph glyph-name="eogonek" unicode="&#x119;" horiz-adv-x="647" 
d="M209 356q53 38 102 129q74 136 74 168q0 15 -20 17q-15 0 -23 -11q-154 -260 -154 -282q0 -17 21 -21zM-12 336q9 93 86 246q136 270 293 270q126 0 192 -127q21 -39 21 -82q0 -53 -31 -111q-176 -260 -332 -333q-55 -28 -55 -56q0 -13 4 -24q18 -66 74 -66q82 0 219 101
q80 59 129 100q49 49 78 49q15 0 28 -10q23 -21 23 -51q0 -33 -41 -97q-39 -56 -110 -114q-76 -57 -99 -78t-39 -45q-20 -31 -35 -62q-13 -27 -13 -56q0 -12 6 -38q4 -25 22 -52q18 -29 25 -35q8 -8 14 -28q1 -3 1 -8q0 -17 -21 -37q-11 -11 -31 -11q-23 0 -51 14
q-94 46 -120 128q-15 39 -15 83q0 38 10 77q2 7 2 18t-5 19q-4 9 -23 14q-217 39 -219 281q0 31 13 121z" />
    <glyph glyph-name="Ecaron" unicode="&#x11a;" horiz-adv-x="842" 
d="M319 -207q-59 0 -102 12q-194 72 -209 295q-3 150 -10 162q-8 14 -35 14q-45 -5 -90 -16q-24 -6 -45 -6q-31 0 -45 14q-43 34 -43 88q0 51 92 66q133 18 184 106q21 24 68 207q41 166 41 199q-3 35 -84 35h-27q-23 0 -39 26q-15 29 -18 58q0 48 59 69q34 13 62 21
q58 15 104 47q47 27 74 98q24 70 104 70q74 0 74 -39l-2 -12q-8 -31 -8 -45q0 -31 57 -31q195 29 293 29q76 0 123 -15q63 -22 66 -84q0 -51 -39 -51q-530 0 -582 -117q-8 -33 -35 -96q-80 -213 -80 -287q0 -55 74 -55q28 0 121 18q117 27 229 27q180 0 189 -117
q0 -50 -60 -53q-61 0 -184 8q-130 0 -254 -37q-112 -32 -143 -79q-19 -28 -19 -76q0 -323 88 -326q114 0 232 103q28 22 49 22q17 0 37 -18q16 -21 16 -41q0 -90 -166 -166q-49 -24 -117 -27zM546 1357q-38 0 -78 26q-142 102 -142 266q0 14 4 56q5 28 37 28q19 0 39 -10
q80 -46 80 -110q0 -9 -4 -25t-4 -22q0 -21 18 -33q10 -6 17 -6q19 0 35 18q3 0 20 14q60 46 102 93q29 34 56 34t61 -28q33 -27 33 -54l-2 -20q-6 -37 -129 -143q-83 -84 -143 -84z" />
    <glyph glyph-name="ecaron" unicode="&#x11b;" horiz-adv-x="647" 
d="M209 356q55 39 102 129q74 136 74 168q0 17 -20 17q-14 0 -23 -11q-154 -263 -154 -282q0 -18 21 -21zM287 -74q-312 0 -312 289q0 17 13 121q9 93 86 246q138 270 293 270q127 0 192 -127q21 -41 21 -82q0 -51 -31 -111q-174 -259 -332 -333q-55 -28 -55 -56q0 -8 4 -24
q18 -66 74 -66q82 0 219 101q80 59 129 100q49 49 78 49q11 0 28 -10q23 -21 23 -51q0 -29 -41 -97q-45 -66 -137 -135q-94 -69 -172 -80q-58 -4 -80 -4zM343 859q-38 0 -78 26q-142 102 -142 266q0 14 4 56q5 28 37 28q19 0 39 -10q80 -46 80 -110q0 -9 -4 -25t-4 -22
q0 -21 18 -33q10 -6 17 -6q18 0 35 18q3 0 20 14q60 46 102 93q29 34 56 34t61 -28q33 -27 33 -54l-2 -20q-6 -37 -129 -143q-83 -84 -143 -84z" />
    <glyph glyph-name="Gbreve" unicode="&#x11e;" horiz-adv-x="1227" 
d="M852 -547q-36 0 -66 27q-64 64 -73 231q0 176 57 430q25 131 25 166q0 17 -7 17q-12 0 -202 -218q-176 -192 -267 -286q-70 -67 -153 -70q-65 0 -129 37q-119 85 -119 231q0 50 31 183q26 129 178 381q138 235 307 446q158 194 250 270q87 74 180 74q230 0 230 -213
q0 -77 -70 -123q-17 -9 -41 -12q-15 0 -31 12q-14 11 -14 33q0 18 10 41q27 55 27 90q0 29 -23 29t-61 -27q-153 -107 -326 -325q-175 -220 -301 -465q-130 -252 -145 -447q0 -39 18 -39q21 3 70 47l461 469q12 10 12 31q-3 20 -16 23q-11 2 -31 2q-77 0 -117 82
q-5 9 -10 32q0 45 59 50q76 4 168 22q191 36 291 39q84 0 158 -18q82 -22 100 -132q0 -46 -45 -49q-18 0 -39 6q-20 7 -47 7q-215 -8 -215 -789q0 -51 4 -215q0 -80 -88 -80zM772 1404q-98 0 -161 28.5t-83 75.5q-19 32 -19 77q0 39 30 73q10 8 19 8q11 0 28 -6t17 -14v-1
q1 -2 2.5 -6.5t11.5 -15.5t25 -20.5t45 -18.5t69 -12q31 0 59.5 16t45.5 36.5t27 37.5t10 23q8 23 53 23q12 0 24 -3q27 -6 27 -65q-1 -103 -62 -164q-70 -72 -168 -72z" />
    <glyph glyph-name="gbreve" unicode="&#x11f;" horiz-adv-x="813" 
d="M272 -829q-129 0 -249 120q-43 46 -43 101q0 67 59 67q35 0 47 -41q40 -135 168 -135q47 0 74 33q23 25 51 80q108 206 147 418q52 273 52 485q0 23 -17 23q-3 0 -20 -7q-13 -7 -269 -301q-68 -77 -145 -77q-49 0 -109 34q-86 53 -86 140q0 37 19 86q137 375 411 667
q66 70 138 70q2 0 8.5 -0.5t19 -1.5t25.5 -2q43 -3 96 -86q19 -28 19 -45q0 -23 -21 -37q-24 -17 -39 -17q-19 0 -39 25q-20 23 -32 23q-15 0 -41 -29q-100 -112 -217 -299q-122 -192 -142 -330q46 30 148 137q94 101 178 213q87 117 108 168q16 31 54 31q90 0 120 -82
q23 -57 23 -225q0 -602 -215 -1012q-105 -194 -281 -194zM434 956q-98 0 -161 28.5t-83 75.5q-19 32 -19 77q0 39 30 73q10 8 19 8q11 0 28 -6t17 -14v-1q1 -2 2.5 -6.5t11.5 -15.5t25 -20.5t45 -18.5t69 -12q31 0 59.5 16t45.5 36.5t27 37.5t10 23q8 23 53 23q12 0 24 -3
q27 -6 27 -65q-1 -103 -62 -164q-70 -72 -168 -72z" />
    <glyph glyph-name="Gdotaccent" unicode="&#x120;" horiz-adv-x="1227" 
d="M852 -547q-36 0 -66 27q-64 64 -73 231q0 176 57 430q25 131 25 166q0 17 -7 17q-12 0 -202 -218q-176 -192 -267 -286q-70 -67 -153 -70q-65 0 -129 37q-119 85 -119 231q0 50 31 183q26 129 178 381q138 235 307 446q158 194 250 270q87 74 180 74q230 0 230 -213
q0 -77 -70 -123q-17 -9 -41 -12q-15 0 -31 12q-14 11 -14 33q0 18 10 41q27 55 27 90q0 29 -23 29t-61 -27q-153 -107 -326 -325q-175 -220 -301 -465q-130 -252 -145 -447q0 -39 18 -39q21 3 70 47l461 469q12 10 12 31q-3 20 -16 23q-11 2 -31 2q-77 0 -117 82
q-5 9 -10 32q0 45 59 50q76 4 168 22q191 36 291 39q84 0 158 -18q82 -22 100 -132q0 -46 -45 -49q-18 0 -39 6q-20 7 -47 7q-215 -8 -215 -789q0 -51 4 -215q0 -80 -88 -80zM918 1418q-116 3 -116 123q0 123 108 123q56 0 92 -21q31 -15 31 -47q-7 -42 -8 -53
q-6 -44 -25 -84q-21 -41 -82 -41z" />
    <glyph glyph-name="gdotaccent" unicode="&#x121;" horiz-adv-x="813" 
d="M272 -829q-129 0 -249 120q-43 46 -43 101q0 67 59 67q35 0 47 -41q40 -135 168 -135q47 0 74 33q23 25 51 80q108 206 147 418q52 273 52 485q0 23 -17 23q-3 0 -20 -7q-13 -7 -269 -301q-68 -77 -145 -77q-49 0 -109 34q-86 53 -86 140q0 37 19 86q137 375 411 667
q66 70 138 70q2 0 8.5 -0.5t19 -1.5t25.5 -2q43 -3 96 -86q19 -28 19 -45q0 -23 -21 -37q-24 -17 -39 -17q-19 0 -39 25q-20 23 -32 23q-15 0 -41 -29q-100 -112 -217 -299q-122 -192 -142 -330q46 30 148 137q94 101 178 213q87 117 108 168q16 31 54 31q90 0 120 -82
q23 -57 23 -225q0 -602 -215 -1012q-105 -194 -281 -194zM539 952q-116 3 -116 123q0 123 108 123q56 0 92 -21q31 -15 31 -47q-7 -42 -8 -53q-6 -44 -25 -84q-21 -41 -82 -41z" />
    <glyph glyph-name="Gcedilla" unicode="&#x122;" horiz-adv-x="1227" 
d="M852 -547q-36 0 -66 27q-64 64 -73 231q0 176 57 430q25 131 25 166q0 17 -7 17q-12 0 -202 -218q-176 -192 -267 -286q-70 -67 -153 -70q-65 0 -129 37q-119 85 -119 231q0 50 31 183q26 129 178 381q138 235 307 446q158 194 250 270q87 74 180 74q230 0 230 -213
q0 -77 -70 -123q-17 -9 -41 -12q-15 0 -31 12q-14 11 -14 33q0 18 10 41q27 55 27 90q0 29 -23 29t-61 -27q-153 -107 -326 -325q-175 -220 -301 -465q-130 -252 -145 -447q0 -39 18 -39q21 3 70 47l461 469q12 10 12 31q-3 20 -16 23q-11 2 -31 2q-77 0 -117 82
q-5 9 -10 32q0 45 59 50q76 4 168 22q191 36 291 39q84 0 158 -18q82 -22 100 -132q0 -46 -45 -49q-18 0 -39 6q-20 7 -47 7q-215 -8 -215 -789q0 -51 4 -215q0 -80 -88 -80zM374 -641q-41 0 -41 37q0 25 41 102q68 127 68 213q0 41 -9 76v25q0 27 33 30q21 0 39 -6
q119 -39 119 -153q0 -100 -64 -195q-89 -129 -186 -129z" />
    <glyph glyph-name="gcedilla" unicode="&#x123;" horiz-adv-x="813" 
d="M649 844q19 -26 19 -45q0 -22 -21 -37q-20 -17 -39 -17q-21 0 -39 25q-17 23 -32 23t-41 -29q-97 -109 -217 -299q-122 -192 -142 -330q50 33 148 137q100 107 178 213q83 109 108 168q13 31 54 31q89 0 120 -82q23 -57 23 -225q0 -602 -215 -1012q-107 -194 -281 -194
q-129 0 -249 120q-43 44 -43 101q0 67 59 67q33 0 47 -41q42 -135 168 -135q46 0 74 33t51 80q106 205 147 418q52 273 52 485q0 21 -17 23q-7 0 -20 -7q-17 -10 -269 -301q-68 -77 -145 -77q-53 0 -109 34q-86 54 -86 140q0 41 19 86q138 376 411 667q32 35 36 46q2 6 2 11
q0 9 -4 18q-15 37 -15 87q6 62 19 117q26 137 114 137q22 0 47 -6q67 -21 74 -64q1 -5 1 -14q0 -39 -34 -89q-34 -52 -34 -110q11 -60 27 -82q22 -31 54 -71z" />
    <glyph glyph-name="Hbar" unicode="&#x126;" horiz-adv-x="1112" 
d="M1041 936q-24 -114 -37 -174q-150 -644 -150 -967q0 -86 25 -235v-13q0 -51 -62 -53h-10q-62 0 -96 55q-34 53 -43 132q-3 19 -6 157q0 263 26 424q6 32 6 55q0 102 -88 103q-126 0 -276 -45q-77 -23 -92 -39q-30 -45 -50 -137q-20 -103 -20 -187q0 -61 20 -166
q0 -46 -73 -47q-126 0 -135 90l-3 50q0 87 23 174t23 137q0 57 -62 57h-2q-85 0 -111 21q-32 29 -32 100q0 39 20 53q18 8 105 19q86 9 120 49q33 38 56 127q15 70 36 152q2 6 2 15q0 11 -6 15q-4 3 -13 3q-11 0 -23 -4q-24 -10 -40 -11q-6 -1 -17 -1q-45 0 -65 42
q-19 42 -22 65q0 1 -0.5 4.5t-0.5 5.5q0 40 57 50q41 8 158 32q16 3 29 22q13 18 19 42q11 41 66 41q15 0 65 -6q50 -9 63 -31q12 -19 37 -19q8 0 12 1q269 35 343 40q67 4 74 14q8 11 12 28q51 199 127 202q70 0 70 -86v-2q0 -29 -14 -116q-2 -12 -2 -17q0 -27 20 -32
q70 -13 80 -83q2 -18 2 -24q0 -29 -17 -31q-19 -3 -42 -3h-19q-24 0 -42 -11q-20 -11 -25 -37zM359 874q-52 -172 -52 -223q0 -94 88 -94h2q77 0 260 33q104 21 119 88q53 208 64 252q3 12 3 22q0 11 -4 18q-7 11 -25 11h-6q-118 -7 -255 -26q-91 -13 -141 -23
q-18 -3 -32 -18q-14 -17 -21 -40z" />
    <glyph glyph-name="hbar" unicode="&#x127;" horiz-adv-x="813" 
d="M368 1123q-5 -27 -22 -140q-35 -222 -35 -299q0 -31 4 -35q6 0 50 53q92 119 192 119q166 0 166 -157q0 -29 -4 -54q-19 -130 -19 -266q0 -259 58 -387q3 -10 10 -18q9 -20 12 -37q0 -13 -8 -21q-22 -21 -63 -24h-15q-192 0 -192 409v283q0 31 -13 31q-9 0 -30 -31
q-169 -270 -240 -584q-17 -79 -84 -84q-135 0 -135 105l2 28q39 227 82 510l29 188q10 71 12 76q22 190 43 334q1 4 1 12q0 19 -16 20h-3q-20 0 -58 -11q-13 -5 -21 -5q-29 0 -49 51q-12 31 -12 51q0 44 33 44q62 15 134 21q13 1 20 22q5 14 14 59q19 115 90 115
q119 -2 119 -102q0 -29 -6 -51q-2 -6 -2 -16q0 -8 3 -15q5 -8 50 -17q37 -7 71 -29q33 -23 33 -85q0 -48 -11 -48h-5q-9 0 -18 3q-1 1 -21 8q-41 14 -98 20h-6q-16 0 -26 -10q-12 -12 -16 -36z" />
    <glyph glyph-name="Imacron" unicode="&#x12a;" horiz-adv-x="625" 
d="M-137 -274q-16 0 -49 6q-35 6 -35 69q0 34 22 58q20 16 93 51q70 30 102 80q29 48 102 465q121 662 121 675q0 27 -12 27q-27 0 -107 -43q-117 -69 -188 -72q-54 0 -84 50q-10 23 -10 53q0 31 71 55q418 180 611 197q71 6 118 6q156 0 156 -82q0 -10 -2 -25
q-3 -22 -72 -28q-107 -11 -174 -29q-56 -14 -82 -68q-27 -57 -71 -247q-122 -454 -137 -764l-3 -17q5 -59 33 -59q26 0 66 16q76 33 184 33q105 -3 105 -96q0 -59 -111 -62q-113 -3 -234 -53q-127 -56 -331 -172q-40 -24 -82 -24zM527 1523q0 -3 -0.5 -8.5t-4.5 -20
t-9.5 -25.5t-17 -20t-26.5 -9q-96 16 -165 16q-16 0 -44 -2q-54 -3 -114 -18q-21 -9 -39 -9t-23 10q-15 21 -35 81q-2 8 -2 18q0 60 46 73q77 20 141 20h56q67 0 121 -8q5 0 12.5 -1t27.5 -7t35.5 -15t28 -26.5t12.5 -40.5v-8z" />
    <glyph glyph-name="imacron" unicode="&#x12b;" horiz-adv-x="291" 
d="M123 -117h-6q-106 0 -113 142v6q-4 60 -4 129q0 252 49 458q13 60 78 60q111 0 111 -88q0 -23 -5 -45q-51 -261 -63 -529q0 -22 6 -41q4 -15 4 -38q0 -11 -2 -33q-3 -17 -55 -21zM355 790q-1 -5 -3 -19q-4 -12 -9 -22q-6 -11 -15 -19q-9 -6 -25 -8q-49 7 -84 11
q-33 3 -66 3q-26 0 -40 -1q-17 0 -42 -4q-12 -2 -61 -13h-1q-1 0 -2 -1q-2 0 -4 -2l-17 -4q-4 -1 -13 -1q-5 0 -9 1q-6 2 -10 8q-14 19 -32 74q-2 10 -2 19q0 7 1 14q2 14 11 28q8 15 30 23q39 11 78 15q38 4 47 4l56 -1q48 0 108 -7h1q1 -1 3 -1l7 -1q13 -2 28 -6
q13 -3 32 -14q15 -9 26 -27q8 -12 8 -33z" />
    <glyph glyph-name="Ibreve" unicode="&#x12c;" horiz-adv-x="625" 
d="M-137 -274q-16 0 -49 6q-35 6 -35 69q0 34 22 58q20 16 93 51q70 30 102 80q29 48 102 465q121 662 121 675q0 27 -12 27q-27 0 -107 -43q-117 -69 -188 -72q-54 0 -84 50q-10 23 -10 53q0 31 71 55q418 180 611 197q71 6 118 6q156 0 156 -82q0 -10 -2 -25
q-3 -22 -72 -28q-107 -11 -174 -29q-56 -14 -82 -68q-27 -57 -71 -247q-122 -454 -137 -764l-3 -17q5 -59 33 -59q26 0 66 16q76 33 184 33q105 -3 105 -96q0 -59 -111 -62q-113 -3 -234 -53q-127 -56 -331 -172q-40 -24 -82 -24zM301 1402q-98 0 -161 28.5t-83 75.5
q-19 32 -19 77q0 39 30 73q10 8 19 8q11 0 28 -6t17 -14v-1q1 -2 2.5 -6.5t11.5 -15.5t25 -20.5t45 -18.5t69 -12q31 0 59.5 16t45.5 36.5t27 37.5t10 23q8 23 53 23q12 0 24 -3q27 -6 27 -65q-1 -103 -62 -164q-70 -72 -168 -72z" />
    <glyph glyph-name="ibreve" unicode="&#x12d;" horiz-adv-x="291" 
d="M123 -117h-6q-106 0 -113 142v6q-4 60 -4 129q0 252 49 458q13 60 78 60q111 0 111 -88q0 -23 -5 -45q-51 -261 -63 -529q0 -22 6 -41q4 -15 4 -38q0 -11 -2 -33q-3 -17 -55 -21zM156 702q-82 0 -132 27q-51 28 -67 70q-15 31 -15 72q0 13 5 33q4 15 19 35q10 8 16 8
q1 0 13 -2q10 -3 16 -7q7 -4 7 -11l2 -6q4 -8 10 -15q6 -8 20 -18q14 -9 37 -17t56 -12q36 1 63 25q25 22 39 49q13 25 13 32q4 13 24 18q9 3 19 3q9 0 20 -3t17 -16q5 -15 5 -45q-2 -100 -50 -153q-58 -67 -137 -67z" />
    <glyph glyph-name="Iogonek" unicode="&#x12e;" horiz-adv-x="625" 
d="M248 -90q-107 -48 -303 -160q-42 -24 -82 -24q-16 0 -49 6q-35 5 -35 69q0 37 22 58q23 18 93 51q71 32 102 80q28 46 102 465q121 654 121 675q0 27 -11 27h-1q-28 0 -107 -43q-120 -70 -188 -72q-52 0 -84 50q-10 21 -10 53q0 31 71 55q418 180 611 197q69 6 118 6
q156 0 156 -81v-1q0 -1 -0.5 -4t-1 -9t-0.5 -12q-3 -22 -72 -28q-124 -14 -174 -29q-58 -15 -82 -68q-23 -47 -71 -247q-124 -461 -137 -764l-3 -17q3 -59 33 -59t66 16q79 33 184 33q105 -1 105 -96q0 -13 -9 -32t-19 -22q-9 -3 -14 -3h-3q-1 0 -3 1t-3 1q-2 0 -12 -2
q-11 -4 -21 -10q-13 -8 -28 -22q-13 -13 -31 -39q-20 -31 -35 -62q-13 -27 -13 -56q0 -13 6 -38q4 -25 22 -52q17 -27 23 -31q23 -14 24 -38v-3q0 -23 -26 -41q-13 -8 -28 -8q-24 0 -56 16q-94 46 -120 128q-15 39 -15 85q0 38 10 78q2 5 2 14q0 7 -3 10q-2 2 -7 2
q-6 0 -14 -3z" />
    <glyph glyph-name="iogonek" unicode="&#x12f;" horiz-adv-x="291" 
d="M174 -58q5 -17 5 -29q0 -1 -2 -15q-2 -11 -34 -13q-30 -1 -39 -10q-7 -7 -13 -30q-9 -29 -15 -69q-1 -7 -1 -21q0 -32 17 -63q18 -32 42 -51q23 -21 31 -23q13 -7 16 -31v-8q0 -21 -8 -40q-4 -19 -40 -19q-18 0 -28 2q-105 16 -153 86q-54 68 -54 181l1 24q5 101 48 156
q22 29 40 43q13 9 13 48v100q0 252 49 458q13 60 78 60q111 0 111 -88q0 -23 -5 -45q-51 -260 -63 -524v-27q0 -39 4 -52zM183 708h-16q-59 9 -68 67q-4 26 -4 64q0 77 25 168q15 63 67 63q20 0 39 -8q92 -30 92 -88q0 -39 -47 -188q-24 -75 -88 -78z" />
    <glyph glyph-name="Idotaccent" unicode="&#x130;" horiz-adv-x="625" 
d="M-137 -274q-16 0 -49 6q-35 6 -35 69q0 34 22 58q20 16 93 51q70 30 102 80q29 48 102 465q121 662 121 675q0 27 -12 27q-27 0 -107 -43q-117 -69 -188 -72q-54 0 -84 50q-10 23 -10 53q0 31 71 55q418 180 611 197q71 6 118 6q156 0 156 -82q0 -10 -2 -25
q-3 -22 -72 -28q-107 -11 -174 -29q-56 -14 -82 -68q-27 -57 -71 -247q-122 -454 -137 -764l-3 -17q5 -59 33 -59q26 0 66 16q76 33 184 33q105 -3 105 -96q0 -59 -111 -62q-113 -3 -234 -53q-127 -56 -331 -172q-40 -24 -82 -24zM350 1417q-116 3 -116 123q0 123 108 123
q56 0 92 -21q31 -15 31 -47q-7 -42 -8 -53q-6 -44 -25 -84q-21 -41 -82 -41z" />
    <glyph glyph-name="idotless" unicode="&#x131;" horiz-adv-x="291" 
d="M123 -117h-6q-106 0 -113 142v6q-4 60 -4 129q0 252 49 458q13 60 78 60q111 0 111 -88q0 -23 -5 -45q-51 -261 -63 -529q0 -22 6 -41q4 -15 4 -38q0 -11 -2 -33q-3 -17 -55 -21z" />
    <glyph glyph-name="Kcedilla" unicode="&#x136;" horiz-adv-x="856" 
d="M825 -410q-33 0 -88 19q-53 18 -147 129q-103 116 -195 233q-98 124 -168 265q-15 32 -26 32q-35 -3 -35 -270q0 -91 8 -156q0 -67 -65 -67q-125 0 -132 190q0 89 19 203q18 86 18 154q0 86 -67 116q-23 12 -23 33q0 32 39 47q89 40 109 162q63 314 129 604q21 87 88 90
q40 0 71 -28q28 -28 31 -72q0 -20 -6 -47q-92 -288 -92 -379q0 -62 16 -62q12 0 39 27l144 145q259 250 493 545q32 35 80 35h31q27 -3 49 -43q8 -11 8 -27q0 -31 -29 -71q-354 -430 -772 -795q-45 -36 -45 -72q0 -21 8 -34q107 -226 246 -430q132 -197 342 -361
q31 -27 31 -57q0 -31 -57 -49q-22 -9 -52 -9zM231 -627q-41 0 -41 37q0 25 41 102q68 127 68 213q0 41 -9 76v25q0 27 33 30q21 0 39 -6q119 -39 119 -153q0 -100 -64 -195q-89 -129 -186 -129z" />
    <glyph glyph-name="kcedilla" unicode="&#x137;" horiz-adv-x="623" 
d="M94 -416h-8q-75 9 -84 146q-2 22 -2 73q0 265 113 809q28 146 43 217q21 112 28 160q16 92 68 92q129 0 129 -104q0 -37 -21 -107q-43 -160 -43 -213q0 -26 13 -26q22 0 73 59q98 107 193 107q38 0 59 -9q51 -17 54 -43q0 -27 -39 -55q-207 -154 -375 -491
q-16 -37 -16 -62q0 -59 75 -90q98 -39 234 -100q28 -14 33 -39q0 -41 -39 -41q-22 0 -60 12q-127 40 -237 86q-17 8 -35 8q-25 -4 -39 -20q-28 -36 -37 -172q-9 -142 -20 -166q-14 -28 -60 -31zM228 -669q-41 0 -41 37q0 25 41 102q68 127 68 213q0 41 -9 76v25q0 27 33 30
q21 0 39 -6q119 -39 119 -153q0 -100 -64 -195q-88 -129 -186 -129z" />
    <glyph glyph-name="Lacute" unicode="&#x139;" horiz-adv-x="717" 
d="M-152 -332h-14q-93 0 -108 76q0 44 98 84q180 76 180 248v45l-6 125q0 582 203 1253q21 66 73 66q43 0 78 -19q35 -21 35 -53q0 -7 -4 -25q-207 -839 -207 -1267l2 -78q22 -156 144 -156q115 0 290 43q72 18 164 33q77 0 115 -41q36 -44 39 -84q0 -55 -45 -55h-94
q-200 0 -584 -117q-267 -75 -359 -78zM122 1525q-25 0 -47 16q-23 15 -23 37q0 51 82 170q132 184 238 184q45 0 67 -34q11 -24 11 -33q0 -14 -9 -29q-10 -20 -260 -282q-27 -29 -59 -29z" />
    <glyph glyph-name="lacute" unicode="&#x13a;" horiz-adv-x="565" 
d="M229 -188q-155 0 -200 149q-29 90 -29 219q0 219 88 549l172 660q21 77 84 77q22 0 41 -8q49 -18 49 -67q0 -26 -8 -54q-240 -918 -240 -1245q0 -153 56 -153q71 0 301 215q2 0 2 2q19 19 47 22q12 0 29 -12q14 -11 14 -31q0 -23 -14 -45q-163 -278 -392 -278zM160 1429
q-25 0 -47 16q-23 15 -23 37q0 51 82 170q132 184 238 184q45 0 67 -34q11 -24 11 -33q0 -14 -9 -29q-10 -20 -260 -282q-27 -29 -59 -29z" />
    <glyph glyph-name="Lcedilla" unicode="&#x13b;" horiz-adv-x="717" 
d="M207 -254q-263 -74 -359 -78h-14q-95 0 -108 76q0 43 98 84q180 76 180 248v45l-6 125q0 581 203 1253q21 66 73 66q41 0 78 -19q35 -20 35 -53q0 -13 -4 -25q-207 -834 -207 -1267l2 -78q21 -156 144 -156q121 0 290 43q89 21 164 33q77 0 115 -41q36 -44 39 -84
q0 -55 -45 -55h-94q-110 0 -270 -34q-35 -8 -43 -20q-3 -5 -3 -9q0 -10 9 -22q28 -37 28 -92q0 -103 -64 -195q-88 -129 -186 -129q-40 0 -41 37q0 25 66 113q57 75 57 141q0 8 -2 22q-10 67 -43 78q-11 4 -28 4q-25 0 -64 -11z" />
    <glyph glyph-name="lcedilla" unicode="&#x13c;" horiz-adv-x="565" 
d="M229 -188q-156 0 -200 149q-29 92 -29 219q0 219 88 549l172 660q20 77 84 77q17 0 41 -8q49 -18 49 -67q0 -20 -8 -54q-240 -917 -240 -1245q0 -153 56 -153q69 0 301 215h2v2q24 21 47 22q16 0 29 -12q14 -12 14 -31q0 -20 -14 -45q-55 -93 -115 -153q-22 -22 -22 -38
q0 -9 6 -16q11 -16 11 -58q0 -12 -5 -69q-4 -51 -69 -144q-89 -129 -186 -129q-40 0 -41 37q0 25 65 90q55 55 59 174v2q0 17 -23 22q-20 4 -72 4z" />
    <glyph glyph-name="Lcaron" unicode="&#x13d;" horiz-adv-x="717" 
d="M-152 -332h-14q-93 0 -108 76q0 44 98 84q180 76 180 248v45l-6 125q0 582 203 1253q21 66 73 66q43 0 78 -19q35 -21 35 -53q0 -7 -4 -25q-207 -839 -207 -1267l2 -78q22 -156 144 -156q115 0 290 43q72 18 164 33q77 0 115 -41q36 -44 39 -84q0 -55 -45 -55h-94
q-200 0 -584 -117q-267 -75 -359 -78zM395 1087q-24 0 -39 21q-6 9 -6 20q0 15 14 35q75 101 115 268q0 22 -8 41q-11 24 -11 39q0 27 43 27q147 0 162 -147q0 -84 -72 -179q-94 -125 -198 -125z" />
    <glyph glyph-name="lcaron" unicode="&#x13e;" horiz-adv-x="818" 
d="M229 -188q-155 0 -200 149q-29 90 -29 219q0 219 88 549l172 660q21 77 84 77q22 0 41 -8q49 -18 49 -67q0 -26 -8 -54q-240 -918 -240 -1245q0 -153 56 -153q71 0 301 215q2 0 2 2q19 19 47 22q12 0 29 -12q14 -11 14 -31q0 -23 -14 -45q-163 -278 -392 -278zM452 1005
q-24 0 -39 21q-6 9 -6 20q0 15 14 35q75 101 115 268q0 22 -8 41q-11 24 -11 39q0 27 43 27q147 0 162 -147q0 -84 -72 -179q-94 -125 -198 -125z" />
    <glyph glyph-name="Lmiddledot" unicode="&#x13f;" horiz-adv-x="717" 
d="M-152 -332h-14q-93 0 -108 76q0 44 98 84q180 76 180 248v45l-6 125q0 582 203 1253q21 66 73 66q43 0 78 -19q35 -21 35 -53q0 -7 -4 -25q-207 -839 -207 -1267l2 -78q22 -156 144 -156q115 0 290 43q72 18 164 33q77 0 115 -41q36 -44 39 -84q0 -55 -45 -55h-94
q-200 0 -584 -117q-267 -75 -359 -78zM388 501q-80 0 -80 90q0 37 24 90q22 51 76 51q94 0 94 -84q-15 -135 -114 -147z" />
    <glyph glyph-name="lmiddledot" unicode="&#x140;" horiz-adv-x="1024" 
d="M229 -188q-155 0 -200 149q-29 90 -29 219q0 219 88 549l172 660q21 77 84 77q22 0 41 -8q49 -18 49 -67q0 -26 -8 -54q-240 -918 -240 -1245q0 -153 56 -153q71 0 301 215q2 0 2 2q19 19 47 22q12 0 29 -12q14 -11 14 -31q0 -23 -14 -45q-163 -278 -392 -278zM432 523
q-80 0 -80 90q0 37 25 90q21 52 76 52q94 0 94 -84q-15 -136 -115 -148z" />
    <glyph glyph-name="Lslash" unicode="&#x141;" horiz-adv-x="717" 
d="M206 589q-30 -223 -30 -388l2 -78q21 -156 144 -156q121 0 290 43q89 21 164 33q77 0 115 -41q36 -44 39 -84q0 -55 -45 -55h-94q-200 0 -584 -117q-263 -74 -359 -78h-14q-95 0 -108 76q0 43 98 84q180 76 180 248v45l-6 125q0 91 4 164v4q0 14 -6 16h-2q-6 0 -12 -8
q-35 -52 -50 -107q-7 -10 -19 -10q-20 0 -62 25q-46 27 -46 68q0 22 10 43q35 83 174 224q17 17 31 46q13 29 17 63q49 345 164 725q21 66 73 66q41 0 78 -19q35 -20 35 -53q0 -13 -4 -25q-64 -255 -112 -496q-3 -15 -3 -24q0 -11 4 -15q1 -1 5 -1q9 0 25 13q25 22 52 22
q15 0 29 -7q45 -27 45 -77q0 -13 -5 -35q-13 -21 -112 -107q-51 -47 -76 -84q-24 -36 -29 -68z" />
    <glyph glyph-name="lslash" unicode="&#x142;" horiz-adv-x="642" 
d="M332 615q-69 -347 -69 -523q0 -153 56 -153q69 0 301 215h2v2q24 21 47 22q15 0 29 -12t14 -31q0 -20 -14 -45q-164 -278 -392 -278q-156 0 -200 149q-29 92 -29 219q0 96 16 207l1 11q0 7 -2 9h-1q-2 0 -9 -10q-24 -42 -34 -82q-6 -22 -27 -22q-20 0 -55 20
q-47 27 -47 75q0 23 12 53q37 86 186 235q47 50 69 134l151 579q20 77 84 77q17 0 41 -8q49 -18 49 -67q0 -20 -8 -54q-47 -177 -91 -361q-4 -16 -4 -27q0 -8 3 -8t7 4q25 22 52 22q15 0 29 -7q45 -27 45 -77q0 -13 -5 -35q-13 -21 -112 -107q-43 -39 -68 -72
q-23 -30 -27 -54z" />
    <glyph glyph-name="Nacute" unicode="&#x143;" horiz-adv-x="1137" 
d="M150 -289h-9q-23 0 -43 8q-93 35 -102 105q-2 8 -2 108q0 535 104 1069q50 361 275 361q114 0 147 -131l37 -236q45 -298 127 -626q27 -103 43 -103q14 3 25 92q76 450 237 1069l12 68q23 164 123 164q117 0 129 -82q0 -33 -14 -68q-55 -160 -147 -491
q-211 -740 -211 -1022q0 -50 12 -105q0 -32 -33 -51q-31 -20 -78 -20q-79 0 -118 71q-213 316 -277 777q-61 407 -74 407q-9 0 -24 -57q-44 -134 -92 -582q-31 -300 -31 -452q0 -51 4 -97q3 -35 27 -67q10 -13 22 -47q0 -17 -20 -37q-22 -22 -49 -25zM615 1430q-25 0 -47 16
q-23 15 -23 37q0 51 82 170q132 184 238 184q45 0 67 -34q11 -24 11 -33q0 -14 -9 -29q-10 -20 -260 -282q-27 -29 -59 -29z" />
    <glyph glyph-name="nacute" unicode="&#x144;" horiz-adv-x="795" 
d="M168 -53q-28 0 -55 12q-110 46 -113 137q0 21 4 45q89 396 115 518q15 79 69 82q14 0 35 -6q83 -27 86 -88q0 -16 -10 -53q-43 -133 -43 -191q0 -22 8 -22q12 0 39 41q131 185 248 328q58 70 115 73q30 0 59 -16q67 -40 70 -127q0 -24 -7 -49q-94 -385 -94 -502
q0 -105 15 -119q4 -16 4 -22q0 -16 -17 -25q-15 -12 -34 -12q-44 0 -78 33q-79 65 -82 180q0 142 4 194q4 50 4 54q0 12 -4 12q-10 0 -225 -385q-52 -92 -113 -92zM410 781q-25 0 -47 16q-23 15 -23 37q0 51 82 170q132 184 238 184q45 0 67 -34q11 -24 11 -33q0 -14 -9 -29
q-10 -20 -260 -282q-27 -29 -59 -29z" />
    <glyph glyph-name="Ncedilla" unicode="&#x145;" horiz-adv-x="1137" 
d="M150 -289h-9q-23 0 -43 8q-93 35 -102 105q-2 8 -2 108q0 535 104 1069q50 361 275 361q114 0 147 -131l37 -236q45 -298 127 -626q27 -103 43 -103q14 3 25 92q76 450 237 1069l12 68q23 164 123 164q117 0 129 -82q0 -33 -14 -68q-55 -160 -147 -491
q-211 -740 -211 -1022q0 -50 12 -105q0 -32 -33 -51q-31 -20 -78 -20q-79 0 -118 71q-213 316 -277 777q-61 407 -74 407q-9 0 -24 -57q-44 -134 -92 -582q-31 -300 -31 -452q0 -51 4 -97q3 -35 27 -67q10 -13 22 -47q0 -17 -20 -37q-22 -22 -49 -25zM346 -568q-41 0 -41 37
q0 25 41 102q68 127 68 213q0 41 -9 76v25q0 27 33 30q21 0 39 -6q119 -39 119 -153q0 -100 -64 -195q-88 -129 -186 -129z" />
    <glyph glyph-name="ncedilla" unicode="&#x146;" horiz-adv-x="795" 
d="M168 -53q-28 0 -55 12q-110 46 -113 137q0 21 4 45q89 396 115 518q15 79 69 82q14 0 35 -6q83 -27 86 -88q0 -16 -10 -53q-43 -133 -43 -191q0 -22 8 -22q12 0 39 41q131 185 248 328q58 70 115 73q30 0 59 -16q67 -40 70 -127q0 -24 -7 -49q-94 -385 -94 -502
q0 -105 15 -119q4 -16 4 -22q0 -16 -17 -25q-15 -12 -34 -12q-44 0 -78 33q-79 65 -82 180q0 142 4 194q4 50 4 54q0 12 -4 12q-10 0 -225 -385q-52 -92 -113 -92zM287 -425q-41 0 -41 37q0 25 41 102q68 127 68 213q0 41 -9 76v25q0 27 33 30q21 0 39 -6q119 -39 119 -153
q0 -100 -64 -195q-89 -129 -186 -129z" />
    <glyph glyph-name="Ncaron" unicode="&#x147;" horiz-adv-x="1137" 
d="M150 -289h-9q-23 0 -43 8q-93 35 -102 105q-2 8 -2 108q0 535 104 1069q50 361 275 361q114 0 147 -131l37 -236q45 -298 127 -626q27 -103 43 -103q14 3 25 92q76 450 237 1069l12 68q23 164 123 164q117 0 129 -82q0 -33 -14 -68q-55 -160 -147 -491
q-211 -740 -211 -1022q0 -50 12 -105q0 -32 -33 -51q-31 -20 -78 -20q-79 0 -118 71q-213 316 -277 777q-61 407 -74 407q-9 0 -24 -57q-44 -134 -92 -582q-31 -300 -31 -452q0 -51 4 -97q3 -35 27 -67q10 -13 22 -47q0 -17 -20 -37q-22 -22 -49 -25zM642 1502q-38 0 -78 26
q-142 102 -142 266q0 14 4 56q5 28 37 28q19 0 39 -10q80 -46 80 -110q0 -9 -4 -25t-4 -22q0 -21 18 -33q10 -6 17 -6q19 0 35 18q3 0 20 14q60 46 102 93q29 34 56 34t61 -28q33 -27 33 -54l-2 -20q-6 -37 -129 -143q-83 -84 -143 -84z" />
    <glyph glyph-name="ncaron" unicode="&#x148;" horiz-adv-x="795" 
d="M168 -53q-28 0 -55 12q-110 46 -113 137q0 21 4 45q89 396 115 518q15 79 69 82q14 0 35 -6q83 -27 86 -88q0 -16 -10 -53q-43 -133 -43 -191q0 -22 8 -22q12 0 39 41q131 185 248 328q58 70 115 73q30 0 59 -16q67 -40 70 -127q0 -24 -7 -49q-94 -385 -94 -502
q0 -105 15 -119q4 -16 4 -22q0 -16 -17 -25q-15 -12 -34 -12q-44 0 -78 33q-79 65 -82 180q0 142 4 194q4 50 4 54q0 12 -4 12q-10 0 -225 -385q-52 -92 -113 -92zM437 814q-38 0 -78 26q-142 102 -142 266q0 14 4 56q5 28 37 28q19 0 39 -10q80 -46 80 -110q0 -9 -4 -25
t-4 -22q0 -21 18 -33q10 -6 17 -6q18 0 35 18q3 0 20 14q60 46 102 93q29 34 56 34t61 -28q33 -27 33 -54l-2 -20q-6 -37 -129 -143q-82 -84 -143 -84z" />
    <glyph glyph-name="Omacron" unicode="&#x14c;" horiz-adv-x="934" 
d="M311 -121q42 0 86 31q211 151 351 833q55 277 55 373q0 25 -2 33q-28 223 -209 223q-29 0 -43 -2q-23 -3 -47 -20q-23 -17 -101 -195q-79 -185 -145 -455q-55 -224 -55 -471q3 -286 86 -344q9 -6 24 -6zM297 -238q-111 0 -195 88q-98 106 -98 340v46q21 689 361 1316
q44 94 110 103q21 0 45 -4q127 -29 139 -119q4 -55 13 -62q10 -7 45 -18q244 -111 244 -352q0 -130 -56 -418q-97 -525 -321 -780q-122 -140 -287 -140zM837 1788q0 -3 -0.5 -8.5t-4.5 -20t-9.5 -25.5t-17 -20t-26.5 -9q-96 16 -165 16q-16 0 -44 -2q-54 -3 -114 -18
q-21 -9 -39 -9t-23 10q-15 21 -35 81q-2 8 -2 18q0 60 46 73q77 20 141 20h56q67 0 121 -8q5 0 12.5 -1t27.5 -7t35.5 -15t28 -26.5t12.5 -40.5v-8z" />
    <glyph glyph-name="omacron" unicode="&#x14d;" horiz-adv-x="557" 
d="M195 109q62 32 110 131q60 129 60 252q0 71 -29 131q-41 -36 -82 -138q-68 -175 -68 -311q0 -42 9 -65zM227 -66q-45 0 -106 33q-64 34 -101 125q-20 50 -20 115q0 102 51 264q53 167 119 285q41 71 111 71q115 0 131 -102q4 -19 28 -43q86 -82 86 -242q0 -34 -2 -86
q-3 -78 -65 -217q-61 -137 -162 -186q-39 -17 -70 -17zM545 939q0 -3 -0.5 -8.5t-4.5 -20t-9.5 -25.5t-17 -20t-26.5 -9q-96 16 -165 16q-16 0 -44 -2q-54 -3 -114 -18q-21 -9 -39 -9t-23 10q-15 21 -35 81q-2 8 -2 18q0 60 46 73q77 20 141 20h56q67 0 121 -8q5 0 12.5 -1
t27.5 -7t35.5 -15t28 -26.5t12.5 -40.5v-8z" />
    <glyph glyph-name="Obreve" unicode="&#x14e;" horiz-adv-x="934" 
d="M311 -121q42 0 86 31q211 151 351 833q55 277 55 373q0 25 -2 33q-28 223 -209 223q-29 0 -43 -2q-23 -3 -47 -20q-23 -17 -101 -195q-79 -185 -145 -455q-55 -224 -55 -471q3 -286 86 -344q9 -6 24 -6zM297 -238q-111 0 -195 88q-98 106 -98 340v46q21 689 361 1316
q44 94 110 103q21 0 45 -4q127 -29 139 -119q4 -55 13 -62q10 -7 45 -18q244 -111 244 -352q0 -130 -56 -418q-97 -525 -321 -780q-122 -140 -287 -140zM642 1680q-98 0 -161 28.5t-83 75.5q-19 32 -19 77q0 39 30 73q10 8 19 8q11 0 28 -6t17 -14v-1q1 -2 2.5 -6.5
t11.5 -15.5t25 -20.5t45 -18.5t69 -12q31 0 59.5 16t45.5 36.5t27 37.5t10 23q8 23 53 23q12 0 24 -3q27 -6 27 -65q-1 -103 -62 -164q-70 -72 -168 -72z" />
    <glyph glyph-name="obreve" unicode="&#x14f;" horiz-adv-x="557" 
d="M195 109q62 32 110 131q60 129 60 252q0 71 -29 131q-41 -36 -82 -138q-68 -175 -68 -311q0 -42 9 -65zM227 -66q-45 0 -106 33q-64 34 -101 125q-20 50 -20 115q0 102 51 264q53 167 119 285q41 71 111 71q115 0 131 -102q4 -19 28 -43q86 -82 86 -242q0 -34 -2 -86
q-3 -78 -65 -217q-61 -137 -162 -186q-39 -17 -70 -17zM308 859q-98 0 -161 28.5t-83 75.5q-19 32 -19 77q0 39 30 73q10 8 19 8q11 0 28 -6t17 -14v-1q1 -2 2.5 -6.5t11.5 -15.5t25 -20.5t45 -18.5t69 -12q31 0 59.5 16t45.5 36.5t27 37.5t10 23q8 23 53 23q12 0 24 -3
q27 -6 27 -65q-1 -103 -62 -164q-70 -72 -168 -72z" />
    <glyph glyph-name="Odoubleacute" unicode="&#x150;" horiz-adv-x="934" 
d="M311 -121q42 0 86 31q211 151 351 833q55 277 55 373q0 25 -2 33q-28 223 -209 223q-29 0 -43 -2q-23 -3 -47 -20q-23 -17 -101 -195q-79 -185 -145 -455q-55 -224 -55 -471q3 -286 86 -344q9 -6 24 -6zM297 -238q-111 0 -195 88q-98 106 -98 340v46q21 689 361 1316
q44 94 110 103q21 0 45 -4q127 -29 139 -119q4 -55 13 -62q10 -7 45 -18q244 -111 244 -352q0 -130 -56 -418q-97 -525 -321 -780q-122 -140 -287 -140zM280 1636q-25 0 -47 16q-23 16 -23 37q0 51 82 170q40 58 94 96t106 38q45 0 67 -34q11 -20 11 -33q0 -14 -9 -29
q-3 -6 -30 -36t-79 -83.5t-113 -112.5q-27 -29 -59 -29zM677 1668q-23 0 -47 16q-22 16 -22 37q0 53 82 170q27 43 79 78t103 35q45 0 68 -34q10 -22 10 -33q0 -13 -8 -29q-2 -5 -15.5 -18t-66 -66t-123.5 -127q-29 -29 -60 -29z" />
    <glyph glyph-name="odoubleacute" unicode="&#x151;" horiz-adv-x="557" 
d="M195 109q62 32 110 131q60 129 60 252q0 71 -29 131q-41 -36 -82 -138q-68 -175 -68 -311q0 -42 9 -65zM227 -66q-45 0 -106 33q-64 34 -101 125q-20 50 -20 115q0 102 51 264q53 167 119 285q41 71 111 71q115 0 131 -102q4 -19 28 -43q86 -82 86 -242q0 -34 -2 -86
q-3 -78 -65 -217q-61 -137 -162 -186q-39 -17 -70 -17zM81 824q-25 0 -47 16q-23 17 -23 37q0 52 82 170q40 57 93 95q52 39 107 39q46 0 67 -34q11 -19 11 -33q0 -10 -9 -29q-17 -30 -222 -232q-29 -29 -59 -29zM411 856q-25 0 -47 16t-22 37q0 52 82 170q26 41 77 77
t105 36q46 0 68 -34q10 -17 10 -33q0 -8 -8 -29q-1 -3 -9 -11l-25 -25q-43 -42 -171 -175q-29 -29 -60 -29z" />
    <glyph glyph-name="OE" unicode="&#x152;" horiz-adv-x="1495" 
d="M311 -121q39 0 86 31q121 87 224 366q149 437 178 887q-34 209 -207 209q-29 0 -43 -2q-23 -3 -47 -20q-23 -17 -101 -195q-79 -185 -145 -455q-55 -224 -55 -471q3 -286 86 -344q9 -6 24 -6zM297 -238q-111 0 -195 88q-98 106 -98 340v46q21 689 361 1316q44 94 110 103
q21 0 45 -4q127 -29 139 -119q4 -55 13 -62q10 -7 45 -18q144 -67 198 -170l5 6q24 70 102 70q74 0 74 -39v-12q-11 -42 -11 -45q0 -31 60 -31q195 29 291 29q78 0 125 -15q62 -21 65 -84q0 -51 -41 -51q-528 0 -579 -117q-8 -31 -35 -96q-49 -129 -66 -215l-16 -80
q6 -47 74 -47q31 0 122 18q114 27 228 27q181 0 190 -117q0 -50 -59 -53q-61 0 -170 8q-144 0 -268 -37q-111 -32 -144 -79q-18 -28 -18 -76q0 -323 88 -326q113 0 231 103q27 22 47 22q21 0 39 -18q17 -20 17 -41q0 -89 -166 -166q-49 -24 -119 -27q-58 0 -100 12
q-164 62 -201 230q-53 -83 -96 -133q-125 -140 -287 -140z" />
    <glyph glyph-name="oe" unicode="&#x153;" horiz-adv-x="1051" 
d="M612 356q54 39 103 129q73 134 73 168q0 17 -20 17q-12 0 -23 -11q-153 -261 -153 -282q0 -18 20 -21zM195 109q62 32 110 131q60 129 60 252q0 71 -29 131q-41 -36 -82 -138q-68 -175 -68 -311q0 -42 9 -65zM690 -74q-208 0 -276 129q-85 -121 -187 -121q-45 0 -106 33
q-64 34 -101 125q-20 50 -20 115q0 102 51 264q53 167 119 285q41 71 111 71q115 0 131 -102q4 -20 32 -45q26 -25 48 -70q131 242 278 242q128 0 193 -127q20 -39 20 -82q0 -53 -31 -111q-172 -258 -331 -333q-56 -29 -56 -56q0 -8 4 -24q20 -66 74 -66q82 0 219 101
q84 60 129 100q49 49 78 49q11 0 29 -10q22 -22 22 -51q0 -32 -41 -97q-43 -66 -137 -135q-93 -69 -172 -80q-58 -4 -80 -4z" />
    <glyph glyph-name="Racute" unicode="&#x154;" horiz-adv-x="817" 
d="M250 475q51 0 168 123q113 119 235 291q113 159 152 231q31 64 31 103q-3 75 -119 75h-64q-67 -3 -198 -38q-137 -41 -152 -168q-110 -476 -110 -588q0 -29 57 -29zM817 -502q-108 0 -215 107q-255 230 -379 557q-21 67 -39 67q-32 0 -32 -272q-3 -108 -70 -111
q-16 0 -47 17q-59 33 -68 239q0 211 66 553q43 215 43 260q0 7 -4 35q-3 22 -49 54q-54 37 -54 77t49 80l52 43q92 65 118 139q3 25 23 25q62 -12 88 -12q86 3 203 41q123 39 270 39q142 0 232 -142q21 -39 24 -82q0 -84 -88 -208q-211 -350 -530 -613q-41 -33 -41 -76
q3 -24 12 -51q173 -443 485 -670q21 -14 21 -34q0 -62 -70 -62zM413 1449q-25 0 -47 16q-23 15 -23 37q0 51 82 170q132 184 238 184q45 0 67 -34q11 -24 11 -33q0 -14 -9 -29q-10 -20 -260 -282q-27 -29 -59 -29z" />
    <glyph glyph-name="racute" unicode="&#x155;" horiz-adv-x="512" 
d="M125 -61q-61 0 -102 38q-23 23 -23 62q46 417 90 690q9 57 62 57q124 0 124 -112q0 -18 -10 -56q-12 -42 -12 -77q0 -31 8 -31q4 0 14 16q47 100 168 152q40 18 78 18q36 0 58 -37q12 -18 12 -32q0 -25 -47 -47q-3 -2 -10.5 -6.5t-10.5 -6.5q-243 -187 -319 -532
q-23 -96 -80 -96zM93 808q-25 0 -47 16q-23 15 -23 37q0 51 82 170q132 184 238 184q45 0 67 -34q11 -24 11 -33q0 -14 -9 -29q-10 -20 -260 -282q-27 -29 -59 -29z" />
    <glyph glyph-name="Rcedilla" unicode="&#x156;" horiz-adv-x="817" 
d="M250 475q51 0 168 123q113 119 235 291q113 159 152 231q31 64 31 103q-3 75 -119 75h-64q-67 -3 -198 -38q-137 -41 -152 -168q-110 -476 -110 -588q0 -29 57 -29zM817 -502q-108 0 -215 107q-255 230 -379 557q-21 67 -39 67q-32 0 -32 -272q-3 -108 -70 -111
q-16 0 -47 17q-59 33 -68 239q0 211 66 553q43 215 43 260q0 7 -4 35q-3 22 -49 54q-54 37 -54 77t49 80l52 43q92 65 118 139q3 25 23 25q62 -12 88 -12q86 3 203 41q123 39 270 39q142 0 232 -142q21 -39 24 -82q0 -84 -88 -208q-211 -350 -530 -613q-41 -33 -41 -76
q3 -24 12 -51q173 -443 485 -670q21 -14 21 -34q0 -62 -70 -62zM159 -654q-41 0 -41 37q0 25 41 102q68 127 68 213q0 41 -9 76v25q0 27 33 30q21 0 39 -6q119 -39 119 -153q0 -100 -64 -195q-88 -129 -186 -129z" />
    <glyph glyph-name="rcedilla" unicode="&#x157;" horiz-adv-x="469" 
d="M0 39q46 417 90 690q9 57 62 57q124 0 124 -109v-3q0 -23 -10 -56q-12 -44 -12 -77q0 -31 8 -31q7 0 14 16q47 100 168 152q38 18 78 18q34 0 58 -37q12 -17 12 -32q0 -24 -47 -47q-3 -2 -10.5 -6.5t-10.5 -6.5q-221 -170 -304 -472q-3 -11 -3 -21q0 -1 2 -15
q1 -7 10 -21q26 -37 26 -89q0 -101 -59 -202q-88 -129 -186 -129q-45 8 -54 48q-2 10 -2 14q0 31 41 49q39 19 80 93q19 35 19 74q0 11 -1 17q-1 15 -21 27q-22 14 -46 36q-26 23 -26 63z" />
    <glyph glyph-name="Rcaron" unicode="&#x158;" horiz-adv-x="817" 
d="M250 475q51 0 168 123q113 119 235 291q113 159 152 231q31 64 31 103q-3 75 -119 75h-64q-67 -3 -198 -38q-137 -41 -152 -168q-110 -476 -110 -588q0 -29 57 -29zM817 -502q-108 0 -215 107q-255 230 -379 557q-21 67 -39 67q-32 0 -32 -272q-3 -108 -70 -111
q-16 0 -47 17q-59 33 -68 239q0 211 66 553q43 215 43 260q0 7 -4 35q-3 22 -49 54q-54 37 -54 77t49 80l52 43q92 65 118 139q3 25 23 25q62 -12 88 -12q86 3 203 41q123 39 270 39q142 0 232 -142q21 -39 24 -82q0 -84 -88 -208q-211 -350 -530 -613q-41 -33 -41 -76
q3 -24 12 -51q173 -443 485 -670q21 -14 21 -34q0 -62 -70 -62zM514 1445q-38 0 -78 26q-142 102 -142 266q0 14 4 56q5 28 37 28q19 0 39 -10q80 -46 80 -110q0 -9 -4 -25t-4 -22q0 -21 18 -33q10 -6 17 -6q19 0 35 18q3 0 20 14q60 46 102 93q29 34 56 34t61 -28
q33 -27 33 -54l-2 -20q-6 -37 -129 -143q-83 -84 -143 -84z" />
    <glyph glyph-name="rcaron" unicode="&#x159;" horiz-adv-x="512" 
d="M125 -61q-61 0 -102 38q-23 23 -23 62q46 417 90 690q9 57 62 57q124 0 124 -112q0 -18 -10 -56q-12 -42 -12 -77q0 -31 8 -31q4 0 14 16q47 100 168 152q40 18 78 18q36 0 58 -37q12 -18 12 -32q0 -25 -47 -47q-3 -2 -10.5 -6.5t-10.5 -6.5q-243 -187 -319 -532
q-23 -96 -80 -96zM312 797q-38 0 -78 26q-142 102 -142 266q0 14 4 56q5 28 37 28q19 0 39 -10q80 -46 80 -110q0 -9 -4 -25t-4 -22q0 -21 18 -33q11 -6 17 -6q19 0 35 18q3 0 20 14q60 46 102 93q29 34 56 34t61 -28q33 -27 33 -54l-2 -20q-6 -37 -129 -143
q-83 -84 -143 -84z" />
    <glyph glyph-name="Sacute" unicode="&#x15a;" horiz-adv-x="770" 
d="M102 -344q-65 0 -65 33q0 27 72 69q65 39 147 127q131 137 131 228q0 58 -209 178t-209 348q0 43 23 172q20 122 145 330q119 203 289 360q40 37 121 82q94 49 170 49q110 0 180 -125q18 -30 18 -61q0 -34 -18 -62q-21 -30 -51 -30q-1 0 -29 4q-24 3 -24 45q0 78 -52 78
q-18 0 -36 -6q-118 -41 -226 -185q-112 -150 -190 -321q-117 -255 -117 -367q0 -28 12 -67q9 -39 74 -72q327 -176 367 -246q26 -45 26 -102q0 -67 -59 -156q-54 -82 -205 -195q-149 -108 -285 -108zM388 1571q-25 0 -47 16q-23 15 -23 37q0 51 82 170q132 184 238 184
q45 0 67 -34q11 -24 11 -33q0 -14 -9 -29q-10 -20 -260 -282q-27 -29 -59 -29z" />
    <glyph glyph-name="sacute" unicode="&#x15b;" horiz-adv-x="496" 
d="M182 -57q-78 0 -78 51q0 27 76 100q103 100 103 152q0 9 -11 33q-10 23 -108 38q-164 26 -164 185q0 79 49 233q82 273 209 273q20 0 37 -7q84 -27 84 -61q0 -30 -31 -70q-153 -190 -153 -389q3 -69 104 -82q194 -21 197 -116v-58q0 -53 -99 -153q-112 -114 -215 -129z
M51 928q-25 0 -47 16q-23 15 -23 37q0 51 82 170q132 184 238 184q45 0 67 -34q11 -24 11 -33q0 -14 -9 -29q-10 -20 -260 -282q-27 -29 -59 -29z" />
    <glyph glyph-name="Scedilla" unicode="&#x15e;" horiz-adv-x="770" 
d="M229 -322q-63 -22 -127 -22t-65 33q0 27 72 69q59 34 147 127q131 140 131 228q0 58 -209 178q-209 122 -209 348q0 43 23 172q23 126 145 330q121 206 289 360q44 41 121 82q92 49 170 49q109 0 180 -125q18 -30 18 -61q0 -34 -18 -62q-19 -30 -51 -30q-1 0 -3 0.5t-5 1
t-6 0.5l-15 2q-24 2 -24 45q0 77 -52 78q-18 0 -36 -6q-119 -41 -226 -185q-112 -150 -190 -321q-117 -253 -117 -367q0 -28 12 -67q11 -40 74 -72q327 -176 367 -246q26 -47 26 -102q0 -67 -59 -156q-50 -73 -109 -120q-62 -48 -69 -70q-5 -15 -5 -24q0 -10 4 -21t52 -31
q137 -45 137 -156q0 -79 -70 -149q-67 -70 -157 -70q-53 0 -88 25q-38 26 -39 43q-1 4 -1 11q0 20 16 26q17 6 42 6h6q23 0 36 7q37 26 58 66q18 39 18 69q0 39 -33 43q-60 8 -87 24q-27 17 -33 37q-3 11 -15 11q-8 0 -26 -8z" />
    <glyph glyph-name="scedilla" unicode="&#x15f;" horiz-adv-x="496" 
d="M182 -57q-77 0 -104 35q-4 5 -4 14q0 38 106 102q85 52 103 152q0 8 -11 33q-9 21 -108 38q-164 26 -164 185q0 79 49 233q83 273 209 273q19 0 37 -7q84 -27 84 -61q0 -32 -31 -70q-153 -189 -153 -389q3 -70 104 -82q194 -21 197 -116v-58q0 -53 -99 -153
q-45 -46 -45 -69v-7q0 -22 41 -45q119 -56 119 -152q0 -12 -1 -19q-9 -78 -87 -140q-64 -53 -137 -53q-9 0 -27 2q-50 6 -84 35q-34 28 -34 46v6q0 24 18 29q12 3 26 3q12 0 18 -1q14 -2 19 -2q11 0 23 4q38 21 65 59q23 37 26 66l1 10q0 29 -28 37q-59 15 -84 34
q-22 17 -27 22q-7 6 -15 6h-2z" />
    <glyph glyph-name="Scaron" unicode="&#x160;" horiz-adv-x="770" 
d="M102 -344q-65 0 -65 33q0 27 72 69q65 39 147 127q131 137 131 228q0 58 -209 178t-209 348q0 43 23 172q20 122 145 330q119 203 289 360q40 37 121 82q94 49 170 49q110 0 180 -125q18 -30 18 -61q0 -34 -18 -62q-21 -30 -51 -30q-1 0 -29 4q-24 3 -24 45q0 78 -52 78
q-18 0 -36 -6q-118 -41 -226 -185q-112 -150 -190 -321q-117 -255 -117 -367q0 -28 12 -67q9 -39 74 -72q327 -176 367 -246q26 -45 26 -102q0 -67 -59 -156q-54 -82 -205 -195q-149 -108 -285 -108zM456 1612q-38 0 -78 26q-142 102 -142 266q0 14 4 56q5 28 37 28
q19 0 39 -10q80 -46 80 -110q0 -9 -4 -25t-4 -22q0 -21 18 -33q10 -6 17 -6q19 0 35 18q3 0 20 14q60 46 102 93q29 34 56 34t61 -28q33 -27 33 -54l-2 -20q-6 -37 -129 -143q-82 -84 -143 -84z" />
    <glyph glyph-name="scaron" unicode="&#x161;" horiz-adv-x="496" 
d="M182 -57q-78 0 -78 51q0 27 76 100q103 100 103 152q0 9 -11 33q-10 23 -108 38q-164 26 -164 185q0 79 49 233q82 273 209 273q20 0 37 -7q84 -27 84 -61q0 -30 -31 -70q-153 -190 -153 -389q3 -69 104 -82q194 -21 197 -116v-58q0 -53 -99 -153q-112 -114 -215 -129z
M248 1053q-38 0 -78 26q-142 102 -142 266q0 14 4 56q5 28 37 28q19 0 39 -10q80 -46 80 -110q0 -9 -4 -25t-4 -22q0 -21 18 -33q10 -6 17 -6q18 0 35 18q3 0 20 14q60 46 102 93q29 34 56 34t61 -28q33 -27 33 -54l-2 -20q-6 -37 -129 -143q-83 -84 -143 -84z" />
    <glyph glyph-name="Tcedilla" unicode="&#x162;" horiz-adv-x="586" 
d="M303 -178q0 -31 -17 -45q-3 -3 -3 -11l2 -18q1 -12 45 -32q137 -45 137 -156q0 -79 -70 -149q-67 -70 -157 -70q-53 0 -88 25q-38 26 -39 43q-1 4 -1 11q0 20 16 26t42 6h6q23 0 36 7q37 26 58 66q18 39 18 69q0 38 -33 43q-60 7 -87 24t-33 37q-6 21 -6 43v9q2 19 5 28
q2 11 6 20q2 4 2 7q0 2 -2 8q-1 4 -9 10q-60 55 -82 161q-18 104 -18 198q0 269 98 656q53 206 84 303q10 29 10 49q0 18 -10 18q-32 0 -250 -112q-218 -113 -270 -113t-70 80q0 4 -1 5q-3 10 -3 22q0 56 72 75q67 20 293 119q213 93 411 160q196 66 418 80l39 -2
q147 -8 147 -97q0 -74 -34 -102q-5 -4 -15 -4q-14 0 -61 24q-52 31 -139 31q-108 0 -213 -57q-96 -53 -127 -154q-199 -660 -199 -1034q0 -180 74 -266q14 -16 17 -31q1 -2 1 -7v-3z" />
    <glyph glyph-name="tcedilla" unicode="&#x163;" horiz-adv-x="406" 
d="M179 -274q-33 30 -48 71q-49 131 -49 412q0 320 86 786q1 5 1 13q3 20 3 30q0 19 -16 19q-35 0 -76 -19q-53 -22 -150 -22q-40 0 -84 74q-18 28 -18 57q0 52 82 61l264 35q48 6 64 64l139 487q21 80 80 80q16 0 43 -8q80 -32 80 -90q0 -20 -11 -50q-38 -100 -100 -296
q-37 -112 -37 -130q1 -34 57 -34l113 2q40 0 90 -6q53 -8 119 -50q67 -43 70 -92q0 -19 -11 -43q-16 -30 -41 -30q-24 0 -55 16q-54 27 -174 27q-206 0 -221 -33q-10 -18 -14 -41q-95 -425 -95 -869q0 -161 19 -262q12 -69 57 -133q10 -14 10 -28t-10 -30q-10 -17 -10 -33
q0 -23 47 -43q137 -45 137 -156q0 -79 -70 -149q-67 -70 -157 -70q-53 0 -88 25q-38 26 -39 43q-1 4 -1 11q0 20 16 26q17 6 42 6h6q23 0 36 7q37 26 58 66q18 39 18 69q0 38 -33 43q-60 7 -87 24t-33 37q-6 21 -6 43v9q2 19 5 28q2 7 2 20v10q-2 9 -10 16z" />
    <glyph glyph-name="Tcaron" unicode="&#x164;" horiz-adv-x="586" 
d="M258 -231h-6q-15 0 -45 10q-124 42 -158 205q-18 100 -18 198q0 276 98 656q48 187 84 303q10 33 10 49q0 18 -10 18q-32 0 -250 -112q-216 -113 -270 -113q-52 0 -70 80q-4 20 -4 27q0 54 72 75q70 22 293 119q213 93 411 160q201 68 418 80l39 -2q147 -9 147 -97
q0 -74 -34 -102q-8 -4 -15 -4q-14 0 -61 24q-52 31 -139 31q-112 0 -213 -57q-94 -51 -127 -154q-199 -656 -199 -1034q0 -180 74 -266q18 -19 18 -41q0 -50 -45 -53zM296 1461q-38 0 -78 26q-142 102 -142 266q0 14 4 56q5 28 37 28q19 0 39 -10q80 -46 80 -110
q0 -9 -4 -25t-4 -22q0 -21 18 -33q10 -6 17 -6q19 0 35 18q3 0 20 14q60 46 102 93q29 34 56 34t61 -28q33 -27 33 -54l-2 -20q-6 -37 -129 -143q-82 -84 -143 -84z" />
    <glyph glyph-name="tcaron" unicode="&#x165;" horiz-adv-x="406" 
d="M281 -326q-20 0 -33 9q-89 39 -117 114q-49 131 -49 412q0 320 86 786q4 38 4 43q0 19 -16 19q-34 0 -76 -19q-58 -22 -150 -22q-38 0 -84 74q-18 30 -18 57q0 52 82 61l264 35q48 6 64 64l139 487q21 80 80 80q20 0 43 -8q80 -32 80 -90q0 -15 -11 -50
q-38 -100 -100 -296q-37 -112 -37 -130q3 -34 57 -34l113 2q38 0 90 -6q53 -8 119 -50q67 -42 70 -92q0 -19 -11 -43q-15 -30 -41 -30q-21 0 -55 16q-52 27 -174 27q-206 0 -221 -33q-6 -11 -14 -41q-95 -420 -95 -869q0 -163 19 -262q13 -72 57 -133q10 -17 10 -24
q0 -10 -10 -27q-21 -24 -65 -27zM592 1414q-24 0 -39 21q-6 9 -6 20q0 15 14 35q75 101 115 268q0 22 -8 41q-11 24 -11 39q0 27 43 27q147 0 162 -147q0 -84 -72 -179q-94 -125 -198 -125z" />
    <glyph glyph-name="Umacron" unicode="&#x16a;" horiz-adv-x="1012" 
d="M782 -250h-16q-83 0 -92 96q-10 202 -10 246q0 132 16 266q20 191 20 273q-3 49 -14 49q-18 -4 -53 -84q-168 -395 -195 -455q-34 -75 -76 -129q-55 -78 -174 -78q-108 0 -172 89q-32 58 -32 182q0 69 16 229q16 164 66 393q53 255 84 353q12 45 65 45q14 0 59 -6
q45 -10 45 -60q0 -40 -14 -92q-22 -80 -76 -426q-53 -329 -53 -436q0 -29 2 -70q0 -63 19 -63q34 3 632 1167q31 51 93 51q111 0 114 -53q0 -39 -14 -74q-184 -506 -184 -1044q0 -52 4 -158q6 -46 20 -84q15 -41 15 -78q0 -40 -95 -49zM805 1409q0 -3 -0.5 -8.5t-4.5 -20
t-9.5 -25.5t-17 -20t-26.5 -9q-96 16 -165 16q-16 0 -44 -2q-54 -3 -114 -18q-21 -9 -39 -9t-23 10q-15 21 -35 81q-2 8 -2 18q0 60 46 73q77 20 141 20h56q67 0 121 -8q5 0 12.5 -1t27.5 -7t35.5 -15t28 -26.5t12.5 -40.5v-8z" />
    <glyph glyph-name="umacron" unicode="&#x16b;" horiz-adv-x="803" 
d="M625 -115h-29q-57 0 -90 23q-54 40 -57 164q-5 40 -11 49q-74 -84 -90 -105q-59 -68 -137 -71l-45 -2q-48 0 -105 45q-61 45 -61 129q0 64 23 233q21 169 79 305q46 120 123 123q85 -15 88 -76q0 -18 -4 -38q-5 -17 -57 -228q-51 -200 -51 -272q0 -25 8 -25q42 3 199 258
q144 239 186 330q26 59 88 64q26 0 55 -13q63 -23 66 -80q0 -28 -8 -51q-138 -392 -138 -598q0 -45 11 -80q8 -24 8 -47v-16q-3 -15 -51 -21zM723 943q0 -3 -0.5 -8.5t-4.5 -20t-9.5 -25.5t-17 -20t-26.5 -9q-96 16 -165 16q-16 0 -44 -2q-54 -3 -114 -18q-21 -9 -39 -9
t-23 10q-15 21 -35 81q-2 8 -2 18q0 60 46 73q77 20 141 20h56q67 0 121 -8q5 0 12.5 -1t27.5 -7t35.5 -15t28 -26.5t12.5 -40.5v-8z" />
    <glyph glyph-name="Ubreve" unicode="&#x16c;" horiz-adv-x="1012" 
d="M782 -250h-16q-83 0 -92 96q-10 202 -10 246q0 132 16 266q20 191 20 273q-3 49 -14 49q-18 -4 -53 -84q-168 -395 -195 -455q-34 -75 -76 -129q-55 -78 -174 -78q-108 0 -172 89q-32 58 -32 182q0 69 16 229q16 164 66 393q53 255 84 353q12 45 65 45q14 0 59 -6
q45 -10 45 -60q0 -40 -14 -92q-22 -80 -76 -426q-53 -329 -53 -436q0 -29 2 -70q0 -63 19 -63q34 3 632 1167q31 51 93 51q111 0 114 -53q0 -39 -14 -74q-184 -506 -184 -1044q0 -52 4 -158q6 -46 20 -84q15 -41 15 -78q0 -40 -95 -49zM582 1244q-98 0 -161 28.5t-83 75.5
q-19 32 -19 77q0 39 30 73q10 8 19 8q11 0 28 -6t17 -14v-1q1 -2 2.5 -6.5t11.5 -15.5t25 -20.5t45 -18.5t69 -12q31 0 59.5 16t45.5 36.5t27 37.5t10 23q8 23 53 23q12 0 24 -3q27 -6 27 -65q-1 -103 -62 -164q-70 -72 -168 -72z" />
    <glyph glyph-name="ubreve" unicode="&#x16d;" horiz-adv-x="803" 
d="M625 -115h-29q-57 0 -90 23q-54 40 -57 164q-5 40 -11 49q-74 -84 -90 -105q-59 -68 -137 -71l-45 -2q-48 0 -105 45q-61 45 -61 129q0 64 23 233q21 169 79 305q46 120 123 123q85 -15 88 -76q0 -18 -4 -38q-5 -17 -57 -228q-51 -200 -51 -272q0 -25 8 -25q42 3 199 258
q144 239 186 330q26 59 88 64q26 0 55 -13q63 -23 66 -80q0 -28 -8 -51q-138 -392 -138 -598q0 -45 11 -80q8 -24 8 -47v-16q-3 -15 -51 -21zM487 813q-98 0 -161 28.5t-83 75.5q-19 32 -19 77q0 39 30 73q10 8 19 8q11 0 28 -6t17 -14v-1q1 -2 2.5 -6.5t11.5 -15.5
t25 -20.5t45 -18.5t69 -12q31 0 59.5 16t45.5 36.5t27 37.5t10 23q8 23 53 23q12 0 24 -3q27 -6 27 -65q-1 -103 -62 -164q-71 -72 -168 -72z" />
    <glyph glyph-name="Uring" unicode="&#x16e;" horiz-adv-x="1012" 
d="M782 -250h-16q-83 0 -92 96q-10 202 -10 246q0 132 16 266q20 191 20 273q-3 49 -14 49q-18 -4 -53 -84q-168 -395 -195 -455q-34 -75 -76 -129q-55 -78 -174 -78q-108 0 -172 89q-32 58 -32 182q0 69 16 229q16 164 66 393q53 255 84 353q12 45 65 45q14 0 59 -6
q45 -10 45 -60q0 -40 -14 -92q-22 -80 -76 -426q-53 -329 -53 -436q0 -29 2 -70q0 -63 19 -63q34 3 632 1167q31 51 93 51q111 0 114 -53q0 -39 -14 -74q-184 -506 -184 -1044q0 -52 4 -158q6 -46 20 -84q15 -41 15 -78q0 -40 -95 -49zM556 1362q7 0 31 22q58 55 94 135
q10 35 10 43q0 7 -6 7q-13 0 -72 -90q-59 -91 -59 -113q0 -4 2 -4zM554 1247q-50 0 -94 51q-31 34 -31 76q0 66 57 148q105 147 156 147q18 0 35 -8q89 -47 104 -139q-3 -79 -65 -158q-84 -117 -162 -117z" />
    <glyph glyph-name="uring" unicode="&#x16f;" horiz-adv-x="803" 
d="M625 -115h-29q-57 0 -90 23q-54 40 -57 164q-5 40 -11 49q-74 -84 -90 -105q-59 -68 -137 -71l-45 -2q-48 0 -105 45q-61 45 -61 129q0 64 23 233q21 169 79 305q46 120 123 123q85 -15 88 -76q0 -18 -4 -38q-5 -17 -57 -228q-51 -200 -51 -272q0 -25 8 -25q42 3 199 258
q144 239 186 330q26 59 88 64q26 0 55 -13q63 -23 66 -80q0 -28 -8 -51q-138 -392 -138 -598q0 -45 11 -80q8 -24 8 -47v-16q-3 -15 -51 -21zM467 917q7 0 31 22q58 55 94 135q10 35 10 43q0 7 -6 7q-13 0 -72 -90q-59 -91 -59 -113q0 -4 2 -4zM465 802q-50 0 -94 51
q-31 34 -31 76q0 66 57 148q105 147 156 147q18 0 35 -8q89 -47 104 -139q-3 -79 -65 -158q-84 -117 -162 -117z" />
    <glyph glyph-name="Udoubleacute" unicode="&#x170;" horiz-adv-x="1012" 
d="M782 -250h-16q-83 0 -92 96q-10 202 -10 246q0 132 16 266q20 191 20 273q-3 49 -14 49q-18 -4 -53 -84q-168 -395 -195 -455q-34 -75 -76 -129q-55 -78 -174 -78q-108 0 -172 89q-32 58 -32 182q0 69 16 229q16 164 66 393q53 255 84 353q12 45 65 45q14 0 59 -6
q45 -10 45 -60q0 -40 -14 -92q-22 -80 -76 -426q-53 -329 -53 -436q0 -29 2 -70q0 -63 19 -63q34 3 632 1167q31 51 93 51q111 0 114 -53q0 -39 -14 -74q-184 -506 -184 -1044q0 -52 4 -158q6 -46 20 -84q15 -41 15 -78q0 -40 -95 -49zM373 1307q-25 0 -47 16q-23 16 -23 37
q0 51 82 170q40 58 94 96t106 38q45 0 67 -34q11 -20 11 -33q0 -14 -9 -29q-3 -6 -30 -36t-79 -83.5t-113 -112.5q-27 -29 -59 -29zM770 1339q-23 0 -47 16q-22 16 -22 37q0 53 82 170q27 43 79 78t103 35q45 0 68 -34q10 -22 10 -33q0 -13 -8 -29q-2 -5 -15.5 -18t-66 -66
t-123.5 -127q-29 -29 -60 -29z" />
    <glyph glyph-name="udoubleacute" unicode="&#x171;" horiz-adv-x="803" 
d="M625 -115h-29q-57 0 -90 23q-54 40 -57 164q-5 40 -11 49q-74 -84 -90 -105q-59 -68 -137 -71l-45 -2q-48 0 -105 45q-61 45 -61 129q0 64 23 233q21 169 79 305q46 120 123 123q85 -15 88 -76q0 -18 -4 -38q-5 -17 -57 -228q-51 -200 -51 -272q0 -25 8 -25q42 3 199 258
q144 239 186 330q26 59 88 64q26 0 55 -13q63 -23 66 -80q0 -28 -8 -51q-138 -392 -138 -598q0 -45 11 -80q8 -24 8 -47v-16q-3 -15 -51 -21zM308 808q-25 0 -47 16q-23 17 -23 37q0 52 82 170q40 57 93 95q52 39 107 39q46 0 67 -34q11 -19 11 -33q0 -10 -9 -29
q-17 -30 -222 -232q-29 -29 -59 -29zM627 836q-25 0 -47 16t-22 37q0 52 82 170q26 41 77 77t105 36q46 0 68 -34q10 -17 10 -33q0 -8 -8 -29q-1 -3 -9 -11l-25 -25q-43 -42 -171 -175q-29 -29 -60 -29z" />
    <glyph glyph-name="Uogonek" unicode="&#x172;" horiz-adv-x="1012" 
d="M782 -250h-16q-83 0 -92 96q-10 202 -10 246q0 132 16 266q20 191 20 273q-3 49 -14 49q-18 -4 -53 -84q-168 -395 -195 -455q-34 -75 -76 -129q-55 -78 -174 -78q-108 0 -172 89q-32 58 -32 182q0 69 16 229q16 164 66 393q53 255 84 353q12 45 65 45q14 0 59 -6
q45 -10 45 -60q0 -40 -14 -92q-22 -80 -76 -426q-53 -329 -53 -436q0 -29 2 -70q0 -63 19 -63q34 3 632 1167q31 51 93 51q111 0 114 -53q0 -39 -14 -74q-184 -506 -184 -1044q0 -52 4 -158q6 -46 20 -84q15 -41 15 -78q0 -40 -95 -49zM289 -242q30 87 85.5 130.5
t111.5 43.5h9q36 0 72 -17q35 -18 53 -59q1 -3 1 -8t-2 -13q-20 -32 -35 -32l-8 1q-12 0 -27 -6t-44.5 -39t-57.5 -89q-13 -26 -13 -55q0 -40 20 -78t31 -44q7 -7 7 -21q0 -31 -23 -57q-7 -10 -23 -10q-18 0 -47 14q-92 46 -120 128q-15 42 -15 84q0 50 25 127z" />
    <glyph glyph-name="uogonek" unicode="&#x173;" horiz-adv-x="803" 
d="M449 72q-3 31 -11 49q-70 -79 -87 -102l-3 -3q-59 -68 -137 -71l-45 -2q-46 0 -105 45q-61 46 -61 129q0 63 23 233q21 169 79 305q46 120 123 123q87 -15 88 -76q0 -23 -4 -38q-15 -56 -51 -203l-6 -25q-51 -209 -51 -272q0 -25 8 -25q42 3 199 258q134 217 186 330
q28 61 88 64q29 0 55 -13q64 -24 66 -80q0 -25 -8 -51q-138 -395 -138 -598q0 -50 11 -80q7 -21 7 -45q0 -8 -1 -18q-1 -15 -44 -19q-44 -5 -56 -12q-14 -7 -28 -22q-13 -13 -31 -39q-20 -31 -35 -62q-13 -27 -13 -56q0 -12 6 -38q4 -25 22 -52q18 -29 25 -35q8 -7 15 -33
q1 -4 1 -10q0 -20 -21 -35q-11 -8 -27 -8q-24 0 -56 16q-94 46 -120 128q-15 39 -15 84q0 59 25 127q34 94 92 135q21 15 29 36q6 18 6 51v10z" />
    <glyph glyph-name="Wcircumflex" unicode="&#x174;" horiz-adv-x="1219" 
d="M80 -182h-29q-124 9 -133 131q0 236 47 553q41 268 131 766q9 81 66 84q104 0 110 -80q0 -19 -4 -39q-151 -850 -151 -887q0 -39 16 -39q18 0 62 133q39 132 153 369q138 289 240 289q96 -9 96 -72v-35q-8 -209 -8 -338q0 -169 10 -329q18 -295 70 -295q7 0 22 6
q13 5 78 139q62 134 129 365q96 331 96 598q-9 218 -59 303q-10 20 -10 39q0 13 12 28q11 15 35 15q23 0 49 -19q104 -70 125 -168q14 -55 14 -125q0 -125 -43 -368q-32 -199 -98 -426q-144 -512 -324 -512h-90q-91 3 -143 149q-72 233 -72 482q0 51 2 73q2 23 2 49
q0 29 -10 29l-14 -6q-21 -16 -262 -743q-22 -113 -115 -119zM415 1388q-17 0 -39 12q-55 34 -55 71q0 22 25 56q77 104 143 207q43 67 121 79q130 -15 174 -141l12 -43q23 -88 37 -110q12 -29 12 -41q0 -18 -12 -27q-17 -10 -26 -10q-31 0 -66 41q-49 45 -66 92
q-21 84 -47 84q-28 0 -67 -74q-4 -5 -43 -70q-25 -36 -45 -71q-25 -55 -58 -55z" />
    <glyph glyph-name="wcircumflex" unicode="&#x175;" horiz-adv-x="1014" 
d="M180 -61q-33 0 -76 16q-104 44 -104 160q0 22 2 32q50 284 137 543q28 79 80 82q28 0 47 -8q63 -20 66 -80q0 -27 -8 -51q-123 -366 -123 -438q0 -13 6 -13q27 0 289 484q45 82 96 82q18 0 41 -9q60 -26 63 -77q0 -40 -14 -76q-17 -45 -43 -209q-14 -84 -14 -152
q0 -52 10 -65q27 0 76 67q47 71 96 183q55 131 55 245q0 113 -59 187q-25 32 -25 55q0 17 15 31q16 16 32 16q24 0 54 -26q127 -112 133 -259l2 -92q0 -82 -64 -231q-144 -344 -291 -344q-35 0 -59 8q-153 47 -156 168q0 31 2 37v12l-2 2q-3 0 -149 -205q-51 -72 -115 -75z
M312 877q-16 0 -39 12q-55 34 -55 71q0 22 25 56q77 104 143 207q43 67 121 79q130 -15 174 -141l12 -43q23 -88 37 -110q12 -28 12 -41q0 -18 -12 -27q-17 -10 -26 -10q-31 0 -66 41q-49 45 -66 92q-21 84 -47 84q-28 0 -67 -74q-4 -5 -43 -70q-25 -36 -45 -71
q-25 -55 -58 -55z" />
    <glyph glyph-name="Ycircumflex" unicode="&#x176;" horiz-adv-x="989" 
d="M741 -838h-8q-196 9 -207 500q0 28 5 145q4 100 41 348q37 245 61 330q20 82 20 95q-6 0 -47 -80q-264 -539 -448 -539q-10 0 -88 12q-80 11 -105 191q-10 56 -10 293q0 214 70 555q46 209 67 288q41 107 117 107q82 0 82 -74q0 -51 -33 -180q-104 -389 -104 -756
q0 -89 4 -164q4 -69 28 -69q25 0 54 29q47 54 197 316q186 326 307 548q153 279 204 389q23 46 74 47q49 0 72 -26q22 -25 22 -54q0 -27 -14 -57q-71 -147 -157 -434q-91 -298 -146 -643q-60 -376 -60 -631q0 -33 2 -97q13 -199 105 -288q20 -20 20 -37q0 -22 -43 -41
q-43 -22 -82 -23zM428 1426q-16 0 -39 12q-55 34 -55 71q0 22 25 56q77 104 143 207q43 67 121 79q130 -15 174 -141l12 -43q23 -88 37 -110q12 -29 12 -41q0 -18 -12 -27q-17 -10 -26 -10q-31 0 -66 41q-49 45 -66 92q-21 84 -47 84q-28 0 -67 -74q-4 -5 -43 -70
q-25 -36 -45 -71q-25 -55 -58 -55z" />
    <glyph glyph-name="ycircumflex" unicode="&#x177;" horiz-adv-x="707" 
d="M573 -563q-24 0 -49 10q-89 38 -123 111t-34 231q0 68 10 231q0 91 -4 91q-5 0 -23 -27q-72 -90 -162 -90q-25 0 -57 10q-131 52 -131 189q0 528 94 534l25 -2q104 -3 104 -115q-8 -149 -8 -258q0 -108 16 -108q28 3 119 186q57 111 139 260q37 64 99 64q28 0 49 -9
q70 -27 70 -96q0 -19 -5 -37q-31 -99 -77 -323q-62 -301 -62 -506q0 -172 62 -246q18 -20 22 -41q0 -14 -14 -28q-28 -28 -60 -31zM223 765q-17 0 -39 12q-55 34 -55 71q0 22 25 56q77 104 143 207q43 67 121 79q130 -15 174 -141l12 -43q23 -88 37 -110q12 -28 12 -41
q0 -18 -12 -27q-17 -10 -26 -10q-31 0 -66 41q-49 45 -66 92q-21 84 -47 84q-28 0 -67 -74q-4 -5 -43 -70q-25 -36 -45 -71q-25 -55 -58 -55z" />
    <glyph glyph-name="Ydieresis" unicode="&#x178;" horiz-adv-x="989" 
d="M741 -838h-8q-196 9 -207 500q0 28 5 145q4 100 41 348q37 245 61 330q20 82 20 95q-6 0 -47 -80q-264 -539 -448 -539q-10 0 -88 12q-80 11 -105 191q-10 56 -10 293q0 214 70 555q46 209 67 288q41 107 117 107q82 0 82 -74q0 -51 -33 -180q-104 -389 -104 -756
q0 -89 4 -164q4 -69 28 -69q25 0 54 29q47 54 197 316q186 326 307 548q153 279 204 389q23 46 74 47q49 0 72 -26q22 -25 22 -54q0 -27 -14 -57q-71 -147 -157 -434q-91 -298 -146 -643q-60 -376 -60 -631q0 -33 2 -97q13 -199 105 -288q20 -20 20 -37q0 -22 -43 -41
q-43 -22 -82 -23zM491 1434l-13 1q-81 23 -86 70v10q0 53 39 121l21 41q14 30 40 34h8q24 0 47 -13q46 -25 49 -68v-5q0 -28 -25 -98q-37 -90 -80 -93zM763 1478h-6q-72 0 -72 84q19 103 35 139q14 33 70 39q86 0 86 -92q0 -45 -29 -105q-26 -56 -84 -65z" />
    <glyph glyph-name="Zacute" unicode="&#x179;" horiz-adv-x="965" 
d="M-276 -373q-56 0 -97 78q-14 27 -14 49q0 44 160 140q160 94 438 354q284 265 373 395q92 136 92 160q0 54 -98 98q-144 62 -367 62q-76 0 -133 -13q-30 -4 -37 -4q-76 0 -88 98q0 97 235 97q93 0 226 -21q146 -22 293 -96q147 -75 182 -207q4 -28 4 -43
q0 -113 -145 -270q-156 -156 -308 -295q-159 -147 -159 -160q0 -20 75 -20q61 0 342 34q230 23 371 23q38 0 94 -4q83 -16 137 -72q59 -59 62 -96q0 -39 -49 -39q-22 0 -49 6q-243 47 -369 47q-153 0 -475 -49q-328 -50 -627 -227q-38 -25 -69 -25zM440 1175q-25 0 -47 16
q-23 15 -23 37q0 51 82 170q132 184 238 184q45 0 67 -34q11 -24 11 -33q0 -14 -9 -29q-10 -20 -260 -282q-27 -29 -59 -29z" />
    <glyph glyph-name="zacute" unicode="&#x17a;" horiz-adv-x="690" 
d="M41 -172q-107 0 -107 70q0 33 56 86q65 57 198 202q130 147 222 285q69 103 69 166q0 59 -61 59q-71 0 -236 -65q-29 -13 -55 -13q-23 0 -66 19q-37 14 -53 55q-4 12 -4 19q0 27 45 43q207 75 365 75q166 0 225 -102q23 -44 23 -90q0 -126 -177 -354l-71 -90
q-19 -25 -19 -41q0 -19 15 -19q6 0 26 4q47 15 88 15q92 0 170 -66q54 -48 54 -109q0 -50 -25 -81q-27 -31 -64 -31q-62 0 -77 37q-11 28 -11 57q0 35 -2 47q-3 16 -28 19q-18 0 -41 -9q-160 -51 -324 -145q-76 -43 -135 -43zM273 852q-25 0 -47 16q-23 15 -23 37
q0 51 82 170q132 184 238 184q45 0 67 -34q11 -24 11 -33q0 -14 -9 -29q-10 -20 -260 -282q-27 -29 -59 -29z" />
    <glyph glyph-name="Zdotaccent" unicode="&#x17b;" horiz-adv-x="965" 
d="M-276 -373q-56 0 -97 78q-14 27 -14 49q0 44 160 140q160 94 438 354q284 265 373 395q92 136 92 160q0 54 -98 98q-144 62 -367 62q-76 0 -133 -13q-30 -4 -37 -4q-76 0 -88 98q0 97 235 97q93 0 226 -21q146 -22 293 -96q147 -75 182 -207q4 -28 4 -43
q0 -113 -145 -270q-156 -156 -308 -295q-159 -147 -159 -160q0 -20 75 -20q61 0 342 34q230 23 371 23q38 0 94 -4q83 -16 137 -72q59 -59 62 -96q0 -39 -49 -39q-22 0 -49 6q-243 47 -369 47q-153 0 -475 -49q-328 -50 -627 -227q-38 -25 -69 -25zM515 1148
q-116 3 -116 123q0 123 108 123q56 0 92 -21q31 -15 31 -47q-7 -42 -8 -53q-6 -44 -25 -84q-21 -41 -82 -41z" />
    <glyph glyph-name="zdotaccent" unicode="&#x17c;" horiz-adv-x="690" 
d="M41 -172q-107 0 -107 70q0 33 56 86q65 57 198 202q130 147 222 285q69 103 69 166q0 59 -61 59q-71 0 -236 -65q-29 -13 -55 -13q-23 0 -66 19q-37 14 -53 55q-4 12 -4 19q0 27 45 43q207 75 365 75q166 0 225 -102q23 -44 23 -90q0 -126 -177 -354l-71 -90
q-19 -25 -19 -41q0 -19 15 -19q6 0 26 4q47 15 88 15q92 0 170 -66q54 -48 54 -109q0 -50 -25 -81q-27 -31 -64 -31q-62 0 -77 37q-11 28 -11 57q0 35 -2 47q-3 16 -28 19q-18 0 -41 -9q-160 -51 -324 -145q-76 -43 -135 -43zM380 858q-116 3 -116 123q0 123 108 123
q56 0 92 -21q31 -15 31 -47q-7 -42 -8 -53q-6 -44 -25 -84q-21 -41 -82 -41z" />
    <glyph glyph-name="Zcaron" unicode="&#x17d;" horiz-adv-x="965" 
d="M-276 -373q-56 0 -97 78q-14 27 -14 49q0 44 160 140q160 94 438 354q284 265 373 395q92 136 92 160q0 54 -98 98q-144 62 -367 62q-76 0 -133 -13q-30 -4 -37 -4q-76 0 -88 98q0 97 235 97q93 0 226 -21q146 -22 293 -96q147 -75 182 -207q4 -28 4 -43
q0 -113 -145 -270q-156 -156 -308 -295q-159 -147 -159 -160q0 -20 75 -20q61 0 342 34q230 23 371 23q38 0 94 -4q83 -16 137 -72q59 -59 62 -96q0 -39 -49 -39q-22 0 -49 6q-243 47 -369 47q-153 0 -475 -49q-328 -50 -627 -227q-38 -25 -69 -25zM520 1126q-38 0 -78 26
q-142 102 -142 266q0 14 4 56q5 28 37 28q19 0 39 -10q80 -46 80 -110q0 -9 -4 -25t-4 -22q0 -21 18 -33q10 -6 17 -6q18 0 35 18q3 0 20 14q60 46 102 93q29 34 56 34t61 -28q33 -27 33 -54l-2 -20q-6 -37 -129 -143q-83 -84 -143 -84z" />
    <glyph glyph-name="zcaron" unicode="&#x17e;" horiz-adv-x="690" 
d="M41 -172q-107 0 -107 70q0 33 56 86q65 57 198 202q130 147 222 285q69 103 69 166q0 59 -61 59q-71 0 -236 -65q-29 -13 -55 -13q-23 0 -66 19q-37 14 -53 55q-4 12 -4 19q0 27 45 43q207 75 365 75q166 0 225 -102q23 -44 23 -90q0 -126 -177 -354l-71 -90
q-19 -25 -19 -41q0 -19 15 -19q6 0 26 4q47 15 88 15q92 0 170 -66q54 -48 54 -109q0 -50 -25 -81q-27 -31 -64 -31q-62 0 -77 37q-11 28 -11 57q0 35 -2 47q-3 16 -28 19q-18 0 -41 -9q-160 -51 -324 -145q-76 -43 -135 -43zM347 847q-38 0 -78 26q-142 102 -142 266
q0 14 4 56q5 28 37 28q19 0 39 -10q80 -46 80 -110q0 -9 -4 -25t-4 -22q0 -21 18 -33q11 -6 17 -6q18 0 35 18q3 0 20 14q60 46 102 93q29 34 56 34t61 -28q33 -27 33 -54l-2 -20q-6 -37 -129 -143q-82 -84 -143 -84z" />
    <glyph glyph-name="Schwa" unicode="&#x18f;" horiz-adv-x="659" 
d="M240 -113q-58 0 -114 26q-102 43 -154 148q-26 54 -26 95q0 21 4 38q21 179 215 366q86 81 236 209q55 43 76 124q20 80 21 130q1 34 1 73q0 28 -2 46q0 44 -30 83q-26 39 -56 39q-32 0 -78 -28q-129 -87 -206 -218q-28 -45 -58 -45q-13 0 -26 7q-33 21 -33 68q0 7 2 23
q26 119 142 214q111 90 219 94l15 1q286 -13 291 -280v-23q0 -256 -66 -562q-67 -309 -133 -461q-39 -88 -117 -131q-63 -36 -123 -36zM222 46q50 0 127 209q41 114 69 231q16 52 16 59q0 6 -4 6q-11 -2 -43 -25q-34 -24 -76 -70q-38 -38 -84 -103q-43 -60 -63 -115
q-19 -53 -19 -89q0 -28 9 -55q2 -20 26 -34q23 -14 42 -14z" />
    <glyph glyph-name="fhook" unicode="&#x192;" horiz-adv-x="710" 
d="M-121 -709q-135 0 -260 126q-45 47 -45 104q0 71 61 71q37 0 50 -42q42 -141 173 -141h5q45 0 74 33q27 31 53 85q110 216 152 437q32 157 32 207q0 35 -13 91q-10 19 -61 33q-68 17 -68 74q0 29 19 39q17 10 53 21q104 35 119 170q30 270 112 520q21 65 70 68
q22 0 37 -4q83 -29 86 -87q0 -22 -4 -37q-97 -401 -97 -435q1 -37 27 -37q18 0 51 14q72 31 148 31q156 0 156 -67q0 -44 -56 -46q-92 -1 -176 -35q-119 -46 -172 -78h-2q-32 -536 -232 -911q-110 -203 -292 -204z" />
    <glyph glyph-name="Aringacute" unicode="&#x1fa;" horiz-adv-x="745" 
d="M262 393q22 0 49 6q73 16 82 72l10 66q37 188 37 270q0 35 -8 35q-17 0 -137 -240q-74 -154 -74 -192q0 -17 41 -17zM625 -385q-47 0 -86 41q-68 74 -97 188q-26 100 -45 217q-12 81 -24 127q-17 48 -37 48q-97 0 -158 -21q-60 -20 -82 -109q-7 -32 -10 -75
q-21 -167 -47 -185q-15 -12 -37 -12q-32 0 -68 27q-69 44 -69 116q0 32 16 74q15 41 15 62q0 22 -23 22q-19 0 -78 -24q-55 -27 -76 -27q-32 0 -59 37q-31 34 -31 80q0 45 54 73q53 26 135 41q145 32 192 76l430 899q56 109 164 109q40 0 82 -13q72 -25 72 -73
q0 -47 -21 -107q-159 -590 -159 -954q0 -378 96 -541q20 -31 20 -47t-22 -33q-24 -16 -47 -16zM564 1533q7 0 31 22q58 55 94 135q10 35 10 43q0 7 -6 7q-13 0 -72 -90q-59 -91 -59 -113q0 -4 2 -4zM562 1418q-50 0 -94 51q-31 34 -31 76q0 66 57 148q105 147 156 147
q18 0 35 -8q89 -47 104 -139q-3 -79 -65 -158q-84 -117 -162 -117zM472 1756q-25 0 -47 16q-23 15 -23 37q0 51 82 170q132 184 238 184q45 0 67 -34q11 -24 11 -33q0 -14 -9 -29q-10 -20 -260 -282q-27 -29 -59 -29z" />
    <glyph glyph-name="aringacute" unicode="&#x1fb;" horiz-adv-x="715" 
d="M602 -10q-11 0 -29 4q-161 52 -161 242q0 67 -15 67q-3 0 -100 -125q-63 -80 -107 -129q-51 -59 -104 -59q-38 0 -80 22q-84 47 -84 144q0 22 6 51q53 258 246 512q80 104 166 104q55 0 96 -32q43 -34 43 -60t-8 -39q-21 -43 -49 -43t-45 10q-13 9 -29 13q-10 0 -33 -29
q-83 -112 -176 -356q-12 -31 -12 -43q0 -11 6 -11q31 0 176 183q186 231 226 243q20 7 38 7q15 0 27 -4q57 -31 57 -117q0 -31 -10 -76q-37 -154 -37 -262q0 -81 35 -162q8 -13 8 -27q0 -28 -51 -28zM402 949q7 0 31 22q58 55 94 135q10 35 10 43q0 7 -6 7q-13 0 -72 -90
q-59 -91 -59 -113q0 -4 2 -4zM400 834q-50 0 -94 51q-31 34 -31 76q0 66 57 148q105 147 156 147q18 0 35 -8q89 -47 104 -139q-3 -79 -65 -158q-84 -117 -162 -117zM309 1181q-25 0 -47 16q-23 15 -23 37q0 51 82 170q132 184 238 184q45 0 67 -34q11 -24 11 -33
q0 -14 -9 -29q-10 -20 -260 -282q-27 -29 -59 -29z" />
    <glyph glyph-name="AEacute" unicode="&#x1fc;" horiz-adv-x="1247" 
d="M221 418l19 4q102 15 157 70l6 45q37 188 37 270q0 35 -8 35q-17 0 -137 -240q-66 -140 -74 -184zM625 -385q-47 0 -86 41q-68 74 -97 188q-26 100 -45 217q-12 81 -24 127q-17 48 -37 48q-97 0 -158 -21q-60 -20 -82 -109q-7 -32 -10 -75q-21 -167 -47 -185
q-15 -12 -37 -12q-32 0 -68 27q-69 44 -69 116q0 32 16 74q15 41 15 62q0 22 -23 22q-19 0 -78 -24q-55 -27 -76 -27q-32 0 -59 37q-31 34 -31 80q0 45 54 73q53 26 135 41q145 32 192 76l430 899q56 109 164 109q95 0 135 -43q9 2 27 2q74 0 74 -39v-12q-11 -42 -11 -45
q0 -31 60 -31q195 29 291 29q78 0 125 -15q62 -21 65 -84q0 -51 -41 -51q-528 0 -579 -117q-8 -31 -35 -96q-82 -206 -82 -287q0 -55 74 -55q31 0 122 18q114 27 228 27q181 0 190 -117q0 -50 -59 -53q-61 0 -170 8q-144 0 -268 -37q-111 -32 -144 -79q-18 -28 -18 -76
q0 -323 88 -326q113 0 231 103q27 22 47 22q21 0 39 -18q17 -20 17 -41q0 -89 -166 -166q-49 -24 -119 -27q-49 0 -92 10q19 -55 41 -88q20 -34 20 -51q0 -16 -22 -33q-24 -16 -47 -16zM517 1408q-25 0 -47 16q-23 15 -23 37q0 51 82 170q132 184 238 184q45 0 67 -34
q11 -24 11 -33q0 -14 -9 -29q-10 -20 -260 -282q-27 -29 -59 -29z" />
    <glyph glyph-name="aeacute" unicode="&#x1fd;" horiz-adv-x="1069" 
d="M631 356q56 40 116 151.5t60 145.5q0 17 -21 17q-9 0 -48 -59.5t-76 -135.5t-37 -112v-5q2 -2 6 -2zM709 -74q-312 0 -312 289q0 21 6 82q-3 6 -6 6q-2 0 -14 -11t-36.5 -42t-49.5 -72q-73 -121 -132 -187q-51 -59 -108 -59q-35 3 -76 24q-84 47 -84 144q0 22 6 51
q26 126 100 281.5t169 288.5q32 46 84.5 72.5t101.5 26.5q52 0 78 -29q39 -44 52.5 -63t13.5 -32q0 -26 -8 -39q-22 -43 -49 -43q-28 0 -45 10q-34 44 -52 48q-14 0 -35 -27q-81 -114 -201 -414q-10 -35 -10 -43q0 -11 6 -11q38 0 201 239q75 109 138.5 172.5t93.5 73.5
q116 190 247 190q128 0 193 -127q20 -39 20 -82q0 -53 -30 -111q-174 -258 -332 -333l-12 -7q-11 -11 -11 -39t15 -68q13 -32 31 -32q81 0 219 101q80 59 129 100q48 49 77 49q12 0 29 -10q23 -23 23 -51q0 -29 -41 -97q-45 -66 -137 -135q-95 -69 -173 -80q-56 -4 -79 -4z
M527 831q-25 0 -47 16q-23 15 -23 37q0 51 82 170q132 184 238 184q45 0 67 -34q11 -24 11 -33q0 -14 -9 -29q-10 -20 -260 -282q-27 -29 -59 -29z" />
    <glyph glyph-name="Oslashacute" unicode="&#x1fe;" horiz-adv-x="934" 
d="M201 229q1 -70 17.5 -129.5t34 -87.5t27.5 -28q4 0 5 6q73 503 335 1325q1 2 1 8q0 16 -9.5 32.5t-19.5 16.5q-29 0 -43 -2q-23 -3 -47 -20q-23 -17 -101 -195q-79 -185 -145 -455q-55 -224 -55 -471zM480 80q-3 -12 -3 -23q0 -17 5 -28.5t11 -11.5q3 0 8 6
q142 218 247 720q55 277 55 373q0 14 -8 25.5t-15 11.5q-6 0 -7 -6q-219 -696 -293 -1067zM401 -444q-34 0 -51 2q-27 3 -57 28q-34 28 -37 76q-4 57 -10 81.5t-19 27.5q-63 13 -125 79q-98 106 -98 340v46q21 689 361 1316q44 94 110 103q21 0 45 -4q127 -29 139 -119
q2 -27 17 -27l8 2l78 236q24 70 88 76q98 0 98 -101q0 -43 -91 -307q-4 -12 -4 -25q0 -24 17 -41q91 -100 91 -245q0 -130 -56 -418q-97 -525 -321 -780q-50 -59 -108 -92q-12 -7 -24.5 -24t-12.5 -38v-2q5 -86 22 -147q0 -40 -60 -43zM533 1712q-25 0 -47 16q-23 15 -23 37
q0 51 82 170q132 184 238 184q45 0 67 -34q11 -24 11 -33q0 -14 -9 -29q-10 -20 -260 -282q-27 -29 -59 -29z" />
    <glyph glyph-name="oslashacute" unicode="&#x1ff;" horiz-adv-x="557" 
d="M233 166l-1 -6q0 -15 9 -15q2 0 4 2q33 35 60 93q60 129 60 252q0 56 -19 108q-71 -241 -113 -434zM139 -358q-35 0 -51 2q-27 3 -57 28q-34 28 -37 76q0 152 29 281q3 15 3 27q0 20 -6 35q-20 48 -20 116q0 102 51 264q53 167 119 285q16 28 33 43q45 136 76 209
q23 69 88 75q98 0 98 -100q0 -34 -31 -117q-4 -11 -16.5 -44t-20.5 -54q13 -26 15 -43q4 -19 28 -43q86 -82 86 -242q0 -34 -2 -86q-3 -78 -65 -217q-61 -137 -162 -186q-40 -17 -63 -17h-9q-22 0 -35.5 -38.5t-13.5 -73.5q0 -56 23 -137q0 -40 -60 -43zM148 976
q-25 0 -47 16q-23 15 -23 37q0 51 82 170q132 184 238 184q45 0 67 -34q11 -24 11 -33q0 -14 -9 -29q-10 -20 -260 -282q-27 -29 -59 -29z" />
    </font>
</defs>
</svg>
